[4K电影] 火烧岛 / Fire Island (2022) 4K高清版本下载

[复制链接]

2299

主题

2448

帖子

1万

积分

超级版主

Rank: 8Rank: 8

积分
17752
 楼主| 发表于 2022-6-3 15:40:20 | 显示全部楼层 |阅读模式
QQ图片20220603153317_副本.png

◎译  名 火烧岛 / 热恋彩虹岛
◎片  名 Fire Island
◎年  代 2022
◎产  地 美国
◎类  别 喜剧 / 爱情
◎语  言 英语
◎上映日期 2022-06-03(美国网络)
◎IMDb链接 https://www.imdb.com/title/tt15218000/
◎豆瓣链接 https://movie.douban.com/subject/35585972/
◎片  长 105分钟
◎导  演 安德鲁·安 Andrew Ahn
◎编  剧 乔尔·金·布斯特 Joel Kim Booster / 乔莉·理查德森 Joely Richardson
◎演  员 乔尔·金·布斯特 Joel Kim Booster
       杨伯文 Bowen Yang
       赵牡丹 Margaret Cho
       康拉德·里卡摩拉 Conrad Ricamora
       詹姆斯·斯卡利 James Scully
       马特·罗杰斯 Matt Rogers
       赞恩·菲利普斯 Zane Phillips
       布莱德利·吉布森 Bradley Gibson
       乔莉·理查德森 Joely Richardson
       尼克·亚当斯 Nick Adams



◎简  介


  两个亚裔喜剧人杨伯文(《SNL》)和Joel Kim Booster(《大哥大姐没出息》)将主演同志题材爱情喜剧片《火岛》(Fire Island)。该片把《傲慢与偏见》做现代新编,讲述两个好友一起去纽约长岛著名的同志世外桃源“火岛”度过一周假期,陪伴他们的是便宜的葡萄酒和一群不拘一格的朋友。
探照灯影业和JAX Media(《轮回派对》)等出品,安德鲁·安(《车道》《桑拿夜》)执导,Booster也担任编剧,8月开拍,将在Hulu(美国)和Disney+旗下的Star(美国之外的全球部分地区)流媒体上线。

Video
ID : 1
Format : HEVC
Format/Info : High Efficiency Video Coding
Format profile : Main 10@L5.1@Main
Codec ID : V_MPEGH/ISO/HEVC
Duration : 1 h 45 min
Bit rate : 14.8 Mb/s
Width : 3 840 pixels
Height : 2 160 pixels
Display aspect ratio : 16:9
Frame rate mode : Constant
Frame rate : 24.000 FPS
Color space : YUV
Chroma subsampling : 4:2:0
Bit depth : 10 bits
Bits/(Pixel*Frame) : 0.074
Stream size : 10.9 GiB (96%)
Default : Yes
Forced : No

Audio
ID : 2
Format : E-AC-3
Format/Info : Enhanced AC-3
Commercial name : Dolby Digital Plus
Codec ID : A_EAC3
Duration : 1 h 45 min
Bit rate mode : Constant
Bit rate : 256 kb/s
Channel(s) : 6 channels
Channel layout : L R C LFE Ls Rs
Sampling rate : 48.0 kHz
Frame rate : 31.250 FPS (1536 SPF)
Compression mode : Lossy
Stream size : 192 MiB (2%)
Language : English
Service kind : Complete Main
Default : Yes
Forced : No

Text #1
ID : 3
Format : UTF-8
Codec ID : S_TEXT/UTF8
Codec ID/Info : UTF-8 Plain Text
Title : English [SDH]
Language : English
Default : No
Forced : No

Text #2
ID : 4
Format : UTF-8
Codec ID : S_TEXT/UTF8
Codec ID/Info : UTF-8 Plain Text
Title : Spanish [SDH]
Language : Spanish
Default : No
Forced : No


资源速度为零或资源敏感被和谐时,推荐使用qBittorrent等下载软件,有条件的推荐115更好的下载软件!

下载地址:


游客,如果您要查看本帖隐藏内容请回复





上一篇:追踪 / Chase (2022) 4K高清版本下载
下一篇:猎狼犬号 / Wolf.Hound(2022) 4K高清版本下载
回复

使用道具 举报

1

主题

1308

帖子

3948

积分

4K家园VIP

Rank: 9Rank: 9Rank: 9

积分
3948
发表于 2022-6-3 15:40:24 | 显示全部楼层
撸过
回复 支持 反对

使用道具 举报

1

主题

1370

帖子

4126

积分

4K家园VIP

Rank: 9Rank: 9Rank: 9

积分
4126
发表于 2022-6-4 16:17:58 | 显示全部楼层
学习下
回复 支持 反对

使用道具 举报

1

主题

1355

帖子

4081

积分

4K家园VIP

Rank: 9Rank: 9Rank: 9

积分
4081
发表于 2022-6-4 17:20:44 来自手机 | 显示全部楼层
啊啊啊啊啊啊啊啊啊啊啊
回复 支持 反对

使用道具 举报

0

主题

2

帖子

9

积分

新手上路

Rank: 1

积分
9
发表于 2022-6-5 10:14:03 | 显示全部楼层
niuniuniuniuniuniuniu
回复 支持 反对

使用道具 举报

0

主题

2

帖子

9

积分

新手上路

Rank: 1

积分
9
发表于 2022-6-5 10:15:44 | 显示全部楼层
knkakankangnnakan
回复 支持 反对

使用道具 举报

0

主题

1

帖子

6

积分

新手上路

Rank: 1

积分
6
发表于 2022-6-5 10:53:56 | 显示全部楼层

webcams girls nude

webcams girls nude
回复 支持 反对

使用道具 举报

0

主题

1

帖子

6

积分

新手上路

Rank: 1

积分
6
发表于 2022-6-6 03:54:57 | 显示全部楼层

free live nude chat

free live nude chat
回复 支持 反对

使用道具 举报

55

主题

1541

帖子

4455

积分

4K家园VIP

Rank: 9Rank: 9Rank: 9

积分
4455
发表于 2022-6-7 13:04:57 来自手机 | 显示全部楼层
什么东西啊
回复 支持 反对

使用道具 举报

4

主题

1381

帖子

4165

积分

4K家园VIP

Rank: 9Rank: 9Rank: 9

积分
4165
发表于 2022-6-7 16:58:15 | 显示全部楼层
回复 支持 反对

使用道具 举报

您需要登录后才可以回帖 登录 | 立即注册

本版积分规则

精彩图文
Archiver|手机版|TAG|Sitemap|新帖|专题|联系我们:邮箱: 4kjia.com@gmail.com   

4k家园   ©2019