[4K电影] 猎狼犬号 / Wolf.Hound(2022) 4K高清版本下载

[复制链接]

1868

主题

2007

帖子

1万

积分

超级版主

Rank: 8Rank: 8

积分
15027
 楼主| 发表于 2022-6-3 16:01:39 | 显示全部楼层 |阅读模式
QQ图片20220603153202_副本.png

◎译  名 猎狼犬号
◎片  名 Wolf.Hound
◎年  代 2022
◎产  地 美国
◎类  别 动作 / 战争 / 冒险
◎语  言 英语 / 德语
◎上映日期 2022-06-03(美国网络)
◎IMDb链接  https://www.imdb.com/title/tt7319486/
◎豆瓣链接 https://movie.douban.com/subject/30304561/
◎片  长 130分钟
◎导  演 迈克尔·B·查特 Michael B. Chait
◎编  剧 特雷弗·多诺万 Trevor Donovan / 詹姆斯·马斯洛 James Maslow
◎演  员 詹姆斯·马斯洛 James Maslow
                    特雷弗·多诺万 Trevor Donovan
                    约翰·特克 John Turk
                    约翰·威尔斯 John Wells
                    罗纳德·伍德海德 Ronald Woodhead
                    泰勒·诺瓦克 Taylor Novak
                    迈克尔·帕里什 Michael Parrish
                    布莱恩·海因茨 Brian Heintz
                    大卫·芬克 David Fink
                    卡拉·乔伊·里德 Kara Joy Reed
                    兰斯·牛顿 Lance Newton
                    丹尼尔·杰弗里斯 Daniel Jeffries
                    梅森·海德格尔 Mason Heidger
                    卡莉·布塞尔 Callie Bussell
                    佛朗哥·普利斯 Franco Pulice
                    迈克尔·布加德 Michael Bugard
                    尼古拉斯·丹蒙 Nicholas Denmon
                    杰里米·埃维茨 Jeremy Evitts
                    安德鲁·斯塔顿 Andrew Staton
                    迈克尔·韦恩·福斯特 Michael Wayne Foster


◎简  介



        受现实生活中的德国特种作战部队KG 200的启发,该部队以特洛伊木马的形式击落、修理和驾驶盟军飞机,《狼犬》发生在1944年,德国占领法国,追随犹太裔美国战斗机飞行员大卫·霍尔顿上尉的英勇事迹。霍尔顿在敌后伏击,必须营救一名被俘的B-17飞行堡垒机组人员,躲避每一次跟踪他的无情敌人,挫败一场可能彻底改变世界命运的阴谋第二次世界大战。

Video
ID : 1
Format : HEVC
Format/Info : High Efficiency Video Coding
Format profile : Main 10@L5@High
Codec ID : V_MPEGH/ISO/HEVC
Duration : 2 h 9 min
Bit rate : 12.0 Mb/s
Width : 3 828 pixels
Height : 1 588 pixels
Display aspect ratio : 2.40:1
Frame rate mode : Constant
Frame rate : 23.976 FPS
Color space : YUV
Chroma subsampling : 4:2:0
Bit depth : 10 bits
Bits/(Pixel*Frame) : 0.082
Stream size : 10.9 GiB (95%)
Default : Yes
Forced : No
Color range : Limited
Color primaries : BT.709
Transfer characteristics : BT.709
Matrix coefficients : BT.709

Audio
ID : 2
Format : E-AC-3
Format/Info : Enhanced AC-3
Commercial name : Dolby Digital Plus
Codec ID : A_EAC3
Duration : 2 h 9 min
Bit rate mode : Constant
Bit rate : 640 kb/s
Channel(s) : 6 channels
Channel layout : L R C LFE Ls Rs
Sampling rate : 48.0 kHz
Frame rate : 31.250 FPS (1536 SPF)
Compression mode : Lossy
Stream size : 594 MiB (5%)
Language : English
Service kind : Complete Main
Default : Yes
Forced : No

Text #1
ID : 3
Format : UTF-8
Codec ID : S_TEXT/UTF8
Codec ID/Info : UTF-8 Plain Text
Duration : 2 h 0 min
Bit rate : 28 b/s
Count of elements : 853
Stream size : 25.5 KiB (0%)
Language : English
Default : Yes
Forced : No

Text #2
ID : 4
Format : UTF-8
Codec ID : S_TEXT/UTF8
Codec ID/Info : UTF-8 Plain Text
Duration : 2 h 3 min
Bit rate : 34 b/s
Count of elements : 1143
Stream size : 30.9 KiB (0%)
Title : SDH
Language : English
Default : No
Forced : No


资源速度为零或资源敏感被和谐时,推荐使用qBittorrent等下载软件,有条件的推荐115更好的下载软件!

下载地址:


游客,如果您要查看本帖隐藏内容请回复






上一篇:火烧岛 / Fire Island (2022) 4K高清版本下载
下一篇:抓人游戏 (简繁粤中字) / Tag (2018) 4K高清下载
回复

使用道具 举报

38

主题

1541

帖子

4403

积分

4K家园VIP

Rank: 9Rank: 9Rank: 9

积分
4403
发表于 2022-6-3 16:01:44 | 显示全部楼层
鄙视楼下的顶帖没我快,哈哈
回复 支持 反对

使用道具 举报

0

主题

30

帖子

3224

积分

中级会员

Rank: 4

积分
3224
发表于 2022-6-4 00:42:27 | 显示全部楼层
谢谢分享
回复

使用道具 举报

0

主题

13

帖子

93

积分

新手上路

Rank: 1

积分
93
发表于 2022-6-4 11:21:22 | 显示全部楼层
谢谢分享
回复

使用道具 举报

0

主题

42

帖子

1290

积分

注册会员

Rank: 2

积分
1290
发表于 2022-6-4 14:14:56 | 显示全部楼层
对胃口的影片!
回复 支持 反对

使用道具 举报

0

主题

54

帖子

968

积分

新手上路

Rank: 1

积分
968
发表于 2022-6-4 17:14:55 | 显示全部楼层
谢谢谢谢谢谢谢
回复 支持 反对

使用道具 举报

0

主题

1

帖子

6

积分

新手上路

Rank: 1

积分
6
发表于 2022-6-4 19:25:17 | 显示全部楼层

asian public nude

asian public nude
回复 支持 反对

使用道具 举报

0

主题

3

帖子

12

积分

新手上路

Rank: 1

积分
12
发表于 2022-6-5 09:35:20 | 显示全部楼层
谢谢分享
回复

使用道具 举报

0

主题

1

帖子

6

积分

新手上路

Rank: 1

积分
6
发表于 2022-6-5 19:26:42 | 显示全部楼层
谢谢分享
回复

使用道具 举报

0

主题

11

帖子

53

积分

新手上路

Rank: 1

积分
53
发表于 2022-6-5 22:31:00 | 显示全部楼层
niubiniubi zhichi
回复 支持 反对

使用道具 举报

您需要登录后才可以回帖 登录 | 立即注册

本版积分规则

精彩图文
Archiver|手机版|TAG|Sitemap|新帖|专题|联系我们:邮箱: 4kjia.com@gmail.com   

4k家园   ©2019