[4K电影] 儿童法案 / The Children Act (2017) 4K高清下载

[复制链接]

2299

主题

2448

帖子

1万

积分

超级版主

Rank: 8Rank: 8

积分
17752
 楼主| 发表于 2022-6-3 16:45:44 | 显示全部楼层 |阅读模式

QQ图片20220603164413_副本.png

◎译  名 儿童法案 / 判决(台) / 少年法·內情(港)
◎片  名 The Children Act
◎年  代 2017
◎产  地 英国
◎类  别 剧情
◎语  言 英语
◎上映日期 2017-09-09(多伦多电影节) / 2018-08-24(英国)
◎IMDb评分  6.7/10 from 13128 users
◎IMDb链接  http://www.imdb.com/title/tt6040662
◎豆瓣评分 7.9/10 from 8415 users
◎豆瓣链接 https://movie.douban.com/subject/26886408/
◎片  长 105分钟
◎导  演 理查德·艾尔 Richard Eyre
◎编  剧 伊恩·麦克尤恩 Ian McEwan
◎主  演 艾玛·汤普森 Emma Thompson
      斯坦利·图齐 Stanley Tucci
      菲恩·怀特海德 Fionn Whitehead
      本·卓别林 Ben Chaplin
      杰森·沃特金斯 Jason Watkins
      萝西·凯弗利洛 Rosie Cavaliero
      妮基·阿姆卡-伯德 Nikki Amuka-Bird
      鲁珀特·范西塔特 Rupert Vansittart
      安东尼·凯尔夫 Anthony Calf
      尼古拉斯·琼斯 Nicholas Jones
      艾琳·沃尔什 Eileen Walsh
      安德鲁·哈维尔 Andrew Havill



◎简  介  


  一位声名显赫的高等法院法官Fiona Maye,她和教授丈夫的婚姻来到破碎的临界点,而一项棘手的案件又摆在她面前:是否应该强迫一位未满18岁、拒绝接受输血治疗的白血病患者活下去?Maye前去医院探望患病男孩Adam,这起谈话带给了两人深远的影响,不仅让Adam产生全新的强烈感受,也将Maye内心深藏的情感激发出来。

◎获奖情况  

  第39届伦敦影评人协会奖(2019)
  年度英国/爱尔兰小演员(提名) 菲恩·怀特海德

Video
ID : 1
Format : HEVC
Format/Info : High Efficiency Video Coding
Format profile : Main 10@L5@Main
HDR format : Dolby Vision, Version 1.0, dvhe.05.06, BL+RPU
Codec ID : V_MPEGH/ISO/HEVC
Duration : 1 h 45 min
Bit rate : 14.5 Mb/s
Width : 3 840 pixels
Height : 2 160 pixels
Display aspect ratio : 16:9
Frame rate mode : Constant
Frame rate : 23.976 (24000/1001) FPS
Color space : YUV
Chroma subsampling : 4:2:0
Bit depth : 10 bits
Bits/(Pixel*Frame) : 0.073
Stream size : 10.7 GiB (87%)
Writing library : x265 2.8hy:[Linux][GCC 7.5.0][64 bit] 10bit
Encoding settings : cpuid=1111039 / frame-threads=1 / no-wpp / no-pmode / no-pme / no-psnr / no-ssim / log-level=2 / input-csp=1 / input-res=3840x2160 / interlace=0 / total-frames=0 / level-idc=0 / high-tier=1 / uhd-bd=0 / ref=4 / no-allow-non-conformance / repeat-headers / annexb / aud / hrd / info / hash=0 / no-temporal-layers / no-open-gop / min-keyint=48 / keyint=48 / gop-lookahead=0 / bframes=4 / b-adapt=2 / b-pyramid / bframe-bias=0 / rc-lookahead=48 / lookahead-slices=4 / scenecut=0 / radl=0 / no-intra-refresh / ctu=64 / min-cu-size=8 / rect / no-amp / max-tu-size=32 / tu-inter-depth=1 / tu-intra-depth=1 / limit-tu=0 / rdoq-level=2 / dynamic-rd=0.00 / no-ssim-rd / signhide / no-tskip / nr-intra=100 / nr-inter=400 / no-constrained-intra / strong-intra-smoothing / max-merge=3 / limit-refs=3 / limit-modes / me=3 / subme=3 / merange=57 / temporal-mvp / weightp / no-weightb / no-analyze-src-pics / deblock=0:0 / sao / no-sao-non-deblock / rd=4 / no-early-skip / rskip / no-fast-intra / no-tskip-fast / no-cu-lossless / no-b-intra / no-splitrd-skip / rdpenalty=0 / psy-rd=0.00 / psy-rdoq=1.00 / no-rd-refine / no-lossless / cbqpoffs=0 / crqpoffs=3 / rc=abr / bitrate=15000 / qcomp=0.60 / qpstep=4 / stats-write=0 / stats-read=2 / cplxblur=20.0 / qblur=0.5 / vbv-maxrate=18000 / vbv-bufsize=12000 / vbv-init=0.6 / vbv-end=0.6 / vbv-end-fr-adj=0.0 / ipratio=1.40 / pbratio=1.30 / aq-mode=1 / aq-strength=1.00 / cutree / zone-count=0 / no-strict-cbr / qg-size=32 / no-rc-grain / qpmax=69 / qpmin=0 / no-const-vbv / sar=1 / overscan=0 / videoformat=5 / range=1 / colorprim=2 / transfer=2 / colormatrix=2 / chromaloc=0 / display-window=0 / max-cll=0,0 / min-luma=0 / max-luma=1023 / log2-max-poc-lsb=8 / vui-timing-info / vui-hrd-info / no-concatenation / slices=1 / no-opt-qp-pps / no-opt-ref-list-length-pps / no-multi-pass-opt-rps / scenecut-bias=0.05 / no-opt-cu-delta-qp / no-aq-motion / no-hdr / no-hdr-opt / no-dhdr10-opt / no-idr-recovery-sei / analysis-reuse-level=5 / scale-factor=0 / refine-intra=0 / refine-inter=0 / refine-mv=0 / no-limit-sao / ctu-info=0 / no-lowpass-dct / refine-mv-type=0 / copy-pic=1 / max-ausize-factor=1.0 / no-dynamic-refine / no-single-sei
Language : English
Default : Yes
Forced : No
Color range : Full

Audio #1
ID : 2
ID in the original source medium : 4352 (0x1100)
Format : DTS XLL
Format/Info : Digital Theater Systems
Commercial name : DTS-HD Master Audio
Codec ID : A_DTS
Duration : 1 h 45 min
Bit rate mode : Variable
Bit rate : 1 721 kb/s
Channel(s) : 6 channels
Channel layout : C L R Ls Rs LFE
Sampling rate : 48.0 kHz
Frame rate : 93.750 FPS (512 SPF)
Bit depth : 16 bits
Compression mode : Lossless
Delay relative to video : 23 s 700 ms
Stream size : 1.26 GiB (10%)
Title : DTS-HD MA 5.1
Language : English
Default : Yes
Forced : No
Original source medium : Blu-ray

Audio #2
ID : 3
Format : AC-3
Format/Info : Audio Coding 3
Commercial name : Dolby Digital
Codec ID : A_AC3
Duration : 1 h 45 min
Bit rate mode : Constant
Bit rate : 384 kb/s
Channel(s) : 6 channels
Channel layout : L R C LFE Ls Rs
Sampling rate : 48.0 kHz
Frame rate : 31.250 FPS (1536 SPF)
Compression mode : Lossy
Stream size : 290 MiB (2%)
Title : DD 5.1
Language : English
Service kind : Complete Main
Default : No
Forced : No

Text #1
ID : 4
Format : UTF-8
Codec ID : S_TEXT/UTF8
Codec ID/Info : UTF-8 Plain Text
Duration : 1 h 36 min
Bit rate : 62 b/s
Count of elements : 1286
Stream size : 44.2 KiB (0%)
Title : English (SDH)
Language : English
Default : Yes
Forced : No

Text #2
ID : 5
ID in the original source medium : 4608 (0x1200)
Format : PGS
Muxing mode : zlib
Codec ID : S_HDMV/PGS
Codec ID/Info : Picture based subtitle format used on BDs/HD-DVDs
Duration : 1 h 36 min
Bit rate : 35.2 kb/s
Count of elements : 2572
Stream size : 24.4 MiB (0%)
Language : English
Default : No
Forced : No
Original source medium : Blu-ray

Menu
00:00:00.000 : en:Chapter 01
00:06:19.212 : en:Chapter 02
00:12:30.499 : en:Chapter 03
00:16:51.885 : en:Chapter 04
00:25:12.427 : en:Chapter 05
00:31:13.079 : en:Chapter 06
00:38:51.620 : en:Chapter 07
00:44:11.815 : en:Chapter 08
00:50:06.628 : en:Chapter 09
00:58:23.625 : en:Chapter 10
01:03:58.000 : en:Chapter 11
01:09:26.745 : en:Chapter 12
01:18:42.175 : en:Chapter 13
01:24:24.893 : en:Chapter 14
01:31:44.957 : en:Chapter 15
01:39:38.931 : en:Chapter 16
资源速度为零或资源敏感被和谐时,推荐使用qBittorrent等下载软件,有条件的推荐115更好的下载软件!

下载地址:


游客,如果您要查看本帖隐藏内容请回复

游客,如果您要查看本帖隐藏内容请回复

游客,如果您要查看本帖隐藏内容请回复

游客,如果您要查看本帖隐藏内容请回复





上一篇:抓人游戏 (简繁粤中字) / Tag (2018) 4K高清下载
下一篇:好莱坞星星女孩 (简繁粤中字)/Hollywood Stargirl (2022) 4K高清下载
回复

使用道具 举报

1

主题

1275

帖子

3841

积分

4K家园VIP

Rank: 9Rank: 9Rank: 9

积分
3841
发表于 2022-6-3 16:45:51 来自手机 | 显示全部楼层
回复 支持 反对

使用道具 举报

51

主题

1526

帖子

4398

积分

4K家园VIP

Rank: 9Rank: 9Rank: 9

积分
4398
发表于 2022-6-13 12:22:14 | 显示全部楼层
路过
回复 支持 反对

使用道具 举报

4

主题

1640

帖子

4520

积分

4K家园VIP

Rank: 9Rank: 9Rank: 9

积分
4520
发表于 2022-6-17 05:40:43 | 显示全部楼层
LZ帖子不给力,勉强给回复下吧
回复 支持 反对

使用道具 举报

0

主题

8

帖子

32

积分

新手上路

Rank: 1

积分
32
发表于 2022-6-20 15:04:13 | 显示全部楼层
谢谢楼主分享
回复 支持 反对

使用道具 举报

53

主题

1546

帖子

4478

积分

4K家园VIP

Rank: 9Rank: 9Rank: 9

积分
4478
发表于 2022-6-29 08:47:56 | 显示全部楼层
嘘,低调。
回复 支持 反对

使用道具 举报

0

主题

1374

帖子

4136

积分

4K家园VIP

Rank: 9Rank: 9Rank: 9

积分
4136
发表于 2022-7-8 23:18:16 | 显示全部楼层
为保住菊花,这个一定得回复!
回复 支持 反对

使用道具 举报

您需要登录后才可以回帖 登录 | 立即注册

本版积分规则

精彩图文
Archiver|手机版|TAG|Sitemap|新帖|专题|联系我们:邮箱: 4kjia.com@gmail.com   

4k家园   ©2019