爱卡莉 / iCarly (2021) / 第一季全13集 / 4K高清版本下载

[复制链接]

主题

帖子

0

积分

超级版主

Rank: 8Rank: 8

积分
0
 楼主| 发表于 2022-6-5 20:39:33 | 显示全部楼层 |阅读模式
p2666006338_副本.jpg

◎译  名 爱卡莉/爱卡莉 复活版/网络小主播
◎片  名 iCarly
◎年  代 2021
◎产  地 美国
◎类  别 剧情/喜剧/爱情/家庭
◎语  言 英语
◎上映日期 2021-06-17(美国)
◎IMDb评分  6.5/10 from 4404 users
◎IMDb链接  https://www.imdb.com/title/tt13657062/
◎豆瓣评分 /10 from 0 users
◎豆瓣链接 https://douban.com/subject/35284426/
◎集  数 13
◎编  剧 Ali Schouten / 杰伊·库根 Jay Kogen
◎主  演 米兰达·卡斯格拉夫 Miranda Cosgrove
       内森·克莱斯 Nathan Kress
       杰瑞·特雷纳 Jerry Trainor
       Rushi Kota Rushi Kota
       艾琳·穆维 Erin Mulvey
       迈克·普罗沃斯 Michael Provost



◎简  介


  十年前,卡莉、斯宾塞和弗雷迪退出了一部最具标志性的电视剧,他们又回来了,在20多岁的时候,面对着生活的不确定性,翻开了人生的新篇章。

Video
ID : 1
Format : HEVC
Format/Info : High Efficiency Video Coding
Format profile : Main@L5@Main
Codec ID : V_MPEGH/ISO/HEVC
Duration : 24 min 23 s
Bit rate : 9 192 kb/s
Width : 3 840 pixels
Height : 2 160 pixels
Display aspect ratio : 16:9
Frame rate mode : Constant
Frame rate : 23.976 (24000/1001) FPS
Color space : YUV
Chroma subsampling : 4:2:0
Bit depth : 8 bits
Bits/(Pixel*Frame) : 0.046
Stream size : 1.57 GiB (98%)
Writing library : x265 3.5+1-f0c1022b6:[Linux][GCC 9.3.0][64 bit] 8bit+10bit+12bit
Encoding settings : cpuid=1111039 / frame-threads=3 / wpp / no-pmode / no-pme / no-psnr / no-ssim / log-level=2 / input-csp=1 / input-res=3840x2160 / interlace=0 / total-frames=0 / level-idc=0 / high-tier=1 / uhd-bd=0 / ref=4 / no-allow-non-conformance / repeat-headers / annexb / no-aud / no-eob / no-eos / no-hrd / info / hash=0 / no-temporal-layers / open-gop / min-keyint=48 / keyint=48 / gop-lookahead=0 / bframes=4 / b-adapt=2 / b-pyramid / bframe-bias=0 / rc-lookahead=25 / lookahead-slices=4 / scenecut=0 / no-hist-scenecut / radl=0 / no-splice / no-intra-refresh / ctu=64 / min-cu-size=8 / rect / no-amp / max-tu-size=32 / tu-inter-depth=1 / tu-intra-depth=1 / limit-tu=0 / rdoq-level=2 / dynamic-rd=0.00 / no-ssim-rd / signhide / no-tskip / nr-intra=0 / nr-inter=0 / no-constrained-intra / strong-intra-smoothing / max-merge=3 / limit-refs=3 / limit-modes / me=3 / subme=3 / merange=57 / temporal-mvp / no-frame-dup / no-hme / weightp / no-weightb / no-analyze-src-pics / deblock=0:0 / sao / no-sao-non-deblock / rd=4 / selective-sao=4 / no-early-skip / rskip / no-fast-intra / no-tskip-fast / no-cu-lossless / no-b-intra / no-splitrd-skip / rdpenalty=0 / psy-rd=2.00 / psy-rdoq=1.00 / no-rd-refine / no-lossless / cbqpoffs=0 / crqpoffs=0 / rc=abr / bitrate=9505 / qcomp=0.60 / qpstep=4 / stats-write=0 / stats-read=2 / cplxblur=20.0 / qblur=0.5 / vbv-maxrate=11406 / vbv-bufsize=9505 / vbv-init=0.8 / min-vbv-fullness=50.0 / max-vbv-fullness=80.0 / ipratio=1.40 / pbratio=1.30 / aq-mode=2 / aq-strength=1.00 / cutree / zone-count=0 / no-strict-cbr / qg-size=32 / no-rc-grain / qpmax=69 / qpmin=0 / no-const-vbv / sar=1 / overscan=0 / videoformat=5 / range=0 / colorprim=1 / transfer=1 / colormatrix=1 / chromaloc=0 / display-window=0 / cll=0,0 / min-luma=0 / max-luma=255 / log2-max-poc-lsb=8 / vui-timing-info / vui-hrd-info / slices=1 / no-opt-qp-pps / no-opt-ref-list-length-pps / no-multi-pass-opt-rps / scenecut-bias=0.05 / hist-threshold=0.03 / no-opt-cu-delta-qp / no-aq-motion / no-hdr10 / no-hdr10-opt / no-dhdr10-opt / no-idr-recovery-sei / analysis-reuse-level=0 / analysis-save-reuse-level=0 / analysis-load-reuse-level=0 / scale-factor=0 / refine-intra=0 / refine-inter=0 / refine-mv=1 / refine-ctu-distortion=0 / no-limit-sao / ctu-info=0 / no-lowpass-dct / refine-analysis-type=0 / copy-pic=1 / max-ausize-factor=1.0 / no-dynamic-refine / no-single-sei / no-hevc-aq / no-svt / no-field / qp-adaptation-range=1.00 / scenecut-aware-qp=0conformance-window-offsets / right=0 / bottom=0 / decoder-max-rate=0 / no-vbv-live-multi-pass
Default : Yes
Forced : No
Color range : Limited
Color primaries : BT.709
Transfer characteristics : BT.709
Matrix coefficients : BT.709

Audio
ID : 2
Format : E-AC-3
Format/Info : Enhanced AC-3
Commercial name : Dolby Digital Plus
Codec ID : A_EAC3
Duration : 24 min 23 s
Bit rate mode : Constant
Bit rate : 192 kb/s
Channel(s) : 6 channels
Channel layout : L R C LFE Ls Rs
Sampling rate : 48.0 kHz
Frame rate : 31.250 FPS (1536 SPF)
Compression mode : Lossy
Stream size : 33.5 MiB (2%)
Language : English
Service kind : Complete Main
Default : Yes
Forced : No

Text #1
ID : 3
Format : UTF-8
Codec ID : S_TEXT/UTF8
Codec ID/Info : UTF-8 Plain Text
Duration : 24 min 15 s
Bit rate : 95 b/s
Count of elements : 515
Stream size : 17.0 KiB (0%)
Language : English
Default : No
Forced : No

Text #2
ID : 4
Format : UTF-8
Codec ID : S_TEXT/UTF8
Codec ID/Info : UTF-8 Plain Text
Duration : 24 min 16 s
Bit rate : 98 b/s
Count of elements : 542
Stream size : 17.6 KiB (0%)
Title : SDH
Language : English
Default : No
Forced : No

Menu
00:00:00.000 : en:Chapter 00
00:12:23.000 : en:Chapter 01
00:19:10.000 : en:Chapter 02


下载地址:

游客,如果您要查看本帖隐藏内容请回复







上一篇:黑帮少女呯呯呯(简繁中字)(2022)/第一季集10全/4K高清版本下载
下一篇:比利小子 / Billy the Kid (2022)/ 第一季全8集 / 4K高清版本下载
回复

使用道具 举报

1

主题

1647

帖子

4549

积分

4K家园VIP

Rank: 9Rank: 9Rank: 9

积分
4549
发表于 2022-6-5 20:40:06 来自手机 | 显示全部楼层
好像还可以
回复 支持 反对

使用道具 举报

2

主题

1487

帖子

4299

积分

中级会员

Rank: 4

积分
4299
发表于 2022-6-5 23:37:52 来自手机 | 显示全部楼层
感谢楼主发帖,前排顶起
回复 支持 反对

使用道具 举报

50

主题

1585

帖子

4591

积分

4K家园VIP

Rank: 9Rank: 9Rank: 9

积分
4591
发表于 2022-6-6 04:46:44 | 显示全部楼层
介是神马?!!
回复 支持 反对

使用道具 举报

主题

帖子

70

积分

新手上路

Rank: 1

积分
70
发表于 2022-6-6 10:26:52 | 显示全部楼层
多发些资源啊
回复 支持 反对

使用道具 举报

54

主题

1593

帖子

4570

积分

4K家园VIP

Rank: 9Rank: 9Rank: 9

积分
4570
发表于 2022-6-6 12:55:20 来自手机 | 显示全部楼层
众里寻他千百度,蓦然回首在这里!
回复 支持 反对

使用道具 举报

52

主题

1521

帖子

4393

积分

4K家园VIP

Rank: 9Rank: 9Rank: 9

积分
4393
发表于 2022-6-6 14:50:40 | 显示全部楼层
专业抢沙发的!哈哈
回复 支持 反对

使用道具 举报

主题

帖子

9

积分

新手上路

Rank: 1

积分
9
发表于 2022-6-6 22:31:53 | 显示全部楼层
金币怎么获取
回复 支持 反对

使用道具 举报

主题

帖子

38

积分

新手上路

Rank: 1

积分
38
发表于 2022-9-21 06:36:15 | 显示全部楼层

站位支持
回复

使用道具 举报

1

主题

1796

帖子

4996

积分

4K家园VIP

Rank: 9Rank: 9Rank: 9

积分
4996
发表于 2022-11-10 10:04:37 | 显示全部楼层
垃圾
回复 支持 反对

使用道具 举报

您需要登录后才可以回帖 登录 | 立即注册

本版积分规则

精彩图文
Archiver|手机版|TAG|Sitemap|新帖|专题|联系我们:邮箱: 4kjia.com@gmail.com   

4k家园   ©2019