[4K电影] 天才不能承受之重 (2022) 4K高清版本下载

[复制链接]

2299

主题

2448

帖子

1万

积分

超级版主

Rank: 8Rank: 8

积分
17752
 楼主| 发表于 2022-6-6 09:53:59 | 显示全部楼层 |阅读模式
本帖最后由 最爱4K哟 于 2022-6-6 12:33 编辑

QQ图片20220606094558_副本.png

◎译  名 天才不能承受之重/超重天才/超吉任务(台)/丧尽癫才(港)/天才无法承受之重/不能承受的天才之重
◎片  名 The Unbearable Weight of Massive Talent
◎年  代 2022
◎产  地 美国
◎类  别 喜剧/动作/惊悚/犯罪
◎语  言 英语
◎上映日期 2022-03-12(西南偏南电影节)/2022-04-22(美国)
◎IMDb评分  7.4/10 from 21869 users
◎IMDb链接  https://www.imdb.com/title/tt11291274/
◎豆瓣评分 7.2/10 from 1112 users
◎豆瓣链接 https://movie.douban.com/subject/34890458/
◎导  演 汤姆·戈米肯 Tom Gormican
◎编  剧 汤姆·戈米肯 Tom Gormican / 凯文·埃滕 Kevin Etten
◎主  演 尼古拉斯·凯奇 Nicolas Cage
       佩德罗·帕斯卡 Pedro Pascal
       蒂凡尼·哈迪斯 Tiffany Haddish
       莎朗·豪根 Sharon Horgan
       帕科·莱昂 Paco León
       尼尔·帕特里克·哈里斯 Neil Patrick Harris
       莉莉·莫·辛 Lily Mo Sheen
       亚历桑德拉·马斯特罗纳迪 Alessandra Mastronardi
       雅各布·西皮奥 Jacob Scipio
       卡特琳·万科娃 Katrin Vankova
       黛米·摩尔 Demi Moore
       安娜·麦克唐纳 Anna MacDonald
       大卫·戈登·格林 David Gordon Green
       伊克·巴里霍尔兹 Ike Barinholtz
       卢克·麦昆 Luke McQueen
       乔安娜·波宾 Joanna Bobin
       曼纽尔陶勒 Manuel Tallafé
       里卡德·巴拉达 Ricard Balada
       杰米·奥多尼斯 Jaime Ordó?ez
       丽贝卡·芬奇 Rebecca Finch
       卡罗琳·博尔顿 Caroline Boulton
       比约恩·弗赖贝格 Bj?rn Freiberg
       艾丽·简 Eli Jane
       哈里·陶乐西 Harry Taurasi
       András Korcsmáros András Korcsmáros
       尼克·威特曼 Nick Wittman

◎简  介

  尼古拉斯·凯奇(Nicolas Cage)有新片了,这次他要在电影里演自己。
  该片主角就是尼古拉斯·凯奇本人,他疯狂的渴望在昆汀·塔伦蒂诺的下部电影里得到一个角色,他经常会和自己脑海中一个90年代的自己对话,后者不断吐槽他“老是接烂片”、“再也不是当年那个电影明星”了。
  讲述破产边缘的凯奇为了100万美元的酬劳去参加一个亿万富翁粉丝(佩德罗·帕斯卡 饰)的生日派对,但这位富豪是一个危险的毒枭。当凯奇被一名CIA特工招募后,事情发生了意想不到的转变,为了拯救自己和亲人,他被迫出演一个终生难忘的角色——尼古拉斯·凯奇,用他最具标志性和最受喜爱的银幕角色来履行自己的传奇人生。
  《才华Video不能承受之重》会有多个桥段向凯奇的代表作致敬,包括《离开拉斯维加斯》(Leaving Las Vegas)、《变脸》(Face-Off)、《极速60秒》(Gone in 60 Seconds)等。影片风格酷似凯奇主演过的2002年电影《改编剧本》(Adaptation),后者是导演斯派克·琼斯与编剧查理·考夫曼联手的杰作。
Video
ID : 1
Format : HEVC
Format/Info : High Efficiency Video Coding
Format profile : Main 10@L5@High
Codec ID : V_MPEGH/ISO/HEVC
Duration : 1 h 46 min
Bit rate : 20.5 Mb/s
Width : 3 828 pixels
Height : 1 592 pixels
Display aspect ratio : 2.40:1
Frame rate mode : Constant
Frame rate : 23.976 FPS
Color space : YUV
Chroma subsampling : 4:2:0
Bit depth : 10 bits
Bits/(Pixel*Frame) : 0.140
Stream size : 15.3 GiB (96%)
Default : Yes
Forced : No
Color range : Limited
Color primaries : BT.709
Transfer characteristics : BT.709
Matrix coefficients : BT.709

Audio
ID : 2
Format : E-AC-3 JOC
Format/Info : Enhanced AC-3 with Joint Object Coding
Commercial name : Dolby Digital Plus with Dolby Atmos
Codec ID : A_EAC3
Duration : 1 h 46 min
Bit rate mode : Constant
Bit rate : 768 kb/s
Channel(s) : 6 channels
Channel layout : L R C LFE Ls Rs
Sampling rate : 48.0 kHz
Frame rate : 31.250 FPS (1536 SPF)
Compression mode : Lossy
Stream size : 587 MiB (4%)
Language : English
Service kind : Complete Main
Default : Yes
Forced : No
Complexity index : 16
Number of dynamic objects : 15
Bed channel count : 1 channel
Bed channel configuration : LFE

Text #1
ID : 3
Format : UTF-8
Codec ID : S_TEXT/UTF8
Codec ID/Info : UTF-8 Plain Text
Duration : 1 h 37 min
Bit rate : 72 b/s
Count of elements : 1832
Stream size : 51.9 KiB (0%)
Language : English
Default : No
Forced : No

Text #2
ID : 4
Format : UTF-8
Codec ID : S_TEXT/UTF8
Codec ID/Info : UTF-8 Plain Text
Duration : 1 h 37 min
Bit rate : 81 b/s
Count of elements : 2073
Stream size : 58.2 KiB (0%)
Title : SDH
Language : English
Default : No
Forced : No

资源速度为零或资源敏感被和谐时,推荐使用qBittorrent等下载软件,有条件的推荐115更好的下载软件!

下载地址:

游客,如果您要查看本帖隐藏内容请回复

游客,如果您要查看本帖隐藏内容请回复

游客,如果您要查看本帖隐藏内容请回复

游客,如果您要查看本帖隐藏内容请回复

游客,如果您要查看本帖隐藏内容请回复

游客,如果您要查看本帖隐藏内容请回复







上一篇:好莱坞星星女孩 (简繁粤中字)/Hollywood Stargirl (2022) 4K高清下载
下一篇:私奔B计划 / Un plan parfait (2012) 4K高清版本下载
回复

使用道具 举报

1

主题

1398

帖子

4024

积分

4K家园VIP

Rank: 9Rank: 9Rank: 9

积分
4024
发表于 2022-6-6 09:54:06 | 显示全部楼层
占坑编辑ing
回复 支持 反对

使用道具 举报

0

主题

20

帖子

70

积分

新手上路

Rank: 1

积分
70
发表于 2022-6-6 10:25:57 | 显示全部楼层
多发些资源啊
回复 支持 反对

使用道具 举报

0

主题

57

帖子

633

积分

新手上路

Rank: 1

积分
633
发表于 2022-6-6 19:27:17 | 显示全部楼层
哦吼?
回复

使用道具 举报

0

主题

1

帖子

6

积分

新手上路

Rank: 1

积分
6
发表于 2022-6-6 21:47:43 | 显示全部楼层
占坑编辑ing
回复 支持 反对

使用道具 举报

0

主题

7

帖子

90

积分

新手上路

Rank: 1

积分
90
发表于 2022-6-6 22:36:02 | 显示全部楼层
好久没见到凯奇的高分作品,这个必须顶起
回复 支持 反对

使用道具 举报

0

主题

4

帖子

15

积分

新手上路

Rank: 1

积分
15
发表于 2022-6-6 23:27:11 | 显示全部楼层
多发些资源啊
回复 支持 反对

使用道具 举报

0

主题

4

帖子

15

积分

新手上路

Rank: 1

积分
15
发表于 2022-6-6 23:28:30 | 显示全部楼层
谢谢老板
回复

使用道具 举报

0

主题

1

帖子

18

积分

新手上路

Rank: 1

积分
18
发表于 2022-6-7 19:56:35 | 显示全部楼层
不知道有没有种子哦
回复 支持 反对

使用道具 举报

0

主题

6

帖子

37

积分

新手上路

Rank: 1

积分
37
发表于 2022-6-8 11:22:17 | 显示全部楼层
终于找到了
回复 支持 反对

使用道具 举报

您需要登录后才可以回帖 登录 | 立即注册

本版积分规则

精彩图文
Archiver|手机版|TAG|Sitemap|新帖|专题|联系我们:邮箱: 4kjia.com@gmail.com   

4k家园   ©2019