[4K电影] 私奔B计划 / Un plan parfait (2012) 4K高清版本下载

[复制链接]

1868

主题

2007

帖子

1万

积分

超级版主

Rank: 8Rank: 8

积分
15027
 楼主| 发表于 2022-6-11 20:22:57 | 显示全部楼层 |阅读模式
本帖最后由 最爱4K哟 于 2022-6-6 13:18 编辑

QQ图片20220606125153_副本.png

◎译  名 私奔B计划 / 真爱找冤家(台) / 完美计划 / 我飞至月球 / Fly Me to the Moon
◎片  名 Un plan parfait
◎年  代 2012
◎产  地 法国
◎类  别 喜剧 / 爱情 / 冒险
◎语  言 法语 / 英语 / 俄语 / 斯瓦希里语 / 丹麦语
◎上映日期 2013-10-25(中国大陆) / 2012-10-31(法国)
◎IMDb链接  https://www.imdb.com/title/tt1986843/
◎豆瓣评分 7.3/10 (20831人评价)
◎豆瓣链接 https://movie.douban.com/subject/10463991/
◎片  长 104分钟
◎导  演 帕斯卡尔·舒梅 Pascal Chaumeil
◎编  剧 劳伦特·泽图恩 Laurent Zeitoun / 约安·格鲁伯 Yoann Gromb / 比阿特丽斯·傅里叶拉 Béatrice Fournera / 菲利浦·米奇兰 Philippe Mechelen
◎演  员 黛安·克鲁格 Diane Kruger
       丹尼·伯恩 Dany Boon
       爱丽丝·波尔 Alice Pol
       罗贝尔·普拉尼奥尔 Robert Plagnol
       乔纳森·科恩 Jonathan Cohen
       伯纳黛特·勒·萨切 Bernadette Le Saché
       伊什尼·齐科特 Etienne Chicot
       玛龙·莱瓦纳 Malonn Lévana
       劳尔·卡拉米 Laure Calamy
       达米安·勃纳尔 Damien Bonnard
       奥利维耶·克拉弗里 Olivier Claverie
       让-伊夫·希洛 Jean-Yves Chilot
       穆里尔·苏威 Muriel Solvay
       林密 Cindy Lin
       尼古拉斯·杜瓦尔·艾达索夫斯基 Nicolas Duval-Adassovsky
       林密 Cindy Lin
       克劳斯·巴代特 Klaus Badelt


◎简  介


  伊莎贝尔(黛安·克鲁格 Diane Kruger 饰)和男友之间维系了一段长达十年的恋情,如今,依旧浓情蜜意的两人决定结婚。可是,在伊莎贝尔的家族里,所有女性都遭受着一个“诅咒”的困扰,那就是她们的第一次婚姻注定会以失败收场,而第二段婚姻才是真正的幸福所在。
面对不容乐观的局面,伊莎贝尔想出了一个妙招,她决定远赴异国,找一个老实的倒霉蛋,闪电结婚后闪电离婚,如此方能和男友幸福的踏入婚姻的殿堂。计划不如变化,一个重大意外的发生让伊莎贝尔的计划几乎泡汤,幸运的是,一个名叫约翰(丹尼·伯恩 Dany Boon 饰)的男人及时的出现在了她的面前,成为了她的“救命稻草”。
Video
ID                          : 1
Format                      : HEVC
Format/Info                 : High Efficiency Video Coding
Format profile              : Main 10@L5@High
Codec ID                    : V_MPEGH/ISO/HEVC
Duration                    : 1 h 44 min
Bit rate                    : 19.5 Mb/s
Width                       : 3 840 pixels
Height                      : 2 160 pixels
Display aspect ratio        : 16:9
Frame rate mode             : Constant
Frame rate                  : 24.000 FPS
Color space                 : YUV
Chroma subsampling          : 4:2:0
Bit depth                   : 10 bits
Bits/(Pixel*Frame)          : 0.098
Stream size                 : 14.3 GiB (90%)
Title                       : [WEB-DL ivi by SOFCJ]
Writing library             : x265 2.6:[Linux][GCC 7.5.0][64 bit] 10bit
Encoding settings           : cpuid=1173503 / frame-threads=6 / wpp / no-pmode / no-pme / no-psnr / no-ssim / log-level=2 / input-csp=1 / input-res=3840x2160 / interlace=0 / total-frames=0 / level-idc=50 / high-tier=1 / uhd-bd=0 / ref=3 / no-allow-non-conformance / repeat-headers / annexb / no-aud / no-hrd / info / hash=0 / no-temporal-layers / no-open-gop / min-keyint=48 / keyint=48 / bframes=3 / b-adapt=2 / b-pyramid / bframe-bias=0 / rc-lookahead=20 / lookahead-slices=8 / scenecut=0 / no-intra-refresh / ctu=64 / min-cu-size=8 / no-rect / no-amp / max-tu-size=32 / tu-inter-depth=1 / tu-intra-depth=1 / limit-tu=0 / rdoq-level=0 / dynamic-rd=0.00 / no-ssim-rd / signhide / no-tskip / nr-intra=0 / nr-inter=0 / constrained-intra / strong-intra-smoothing / max-merge=2 / limit-refs=3 / no-limit-modes / me=1 / subme=2 / merange=80 / temporal-mvp / weightp / no-weightb / no-analyze-src-pics / deblock=0:0 / sao / no-sao-non-deblock / rd=3 / no-early-skip / rskip / no-fast-intra / no-tskip-fast / no-cu-lossless / no-b-intra / no-splitrd-skip / rdpenalty=0 / psy-rd=2.00 / psy-rdoq=0.00 / no-rd-refine / analysis-reuse-mode=0 / no-lossless / cbqpoffs=0 / crqpoffs=0 / rc=abr / bitrate=20000 / qcomp=0.60 / qpstep=4 / stats-write=0 / stats-read=0 / vbv-maxrate=30000 / vbv-bufsize=60000 / vbv-init=0.9 / ipratio=1.40 / pbratio=1.30 / aq-mode=1 / aq-strength=1.00 / cutree / zone-count=0 / no-strict-cbr / qg-size=32 / no-rc-grain / qpmax=69 / qpmin=0 / no-const-vbv / sar=1 / overscan=0 / videoformat=5 / range=0 / colorprim=2 / transfer=2 / colormatrix=2 / chromaloc=0 / display-window=0 / max-cll=0,0 / min-luma=0 / max-luma=1023 / log2-max-poc-lsb=8 / vui-timing-info / vui-hrd-info / slices=1 / no-opt-qp-pps / no-opt-ref-list-length-pps / no-multi-pass-opt-rps / scenecut-bias=0.05 / no-opt-cu-delta-qp / no-aq-motion / no-hdr / no-hdr-opt / no-dhdr10-opt / analysis-reuse-level=5 / scale-factor=0 / refine-intra=0 / refine-inter=0 / refine-mv=0 / no-limit-sao / ctu-info=0 / no-lowpass-dct / refine-mv-type=0 / copy-pic=1
Language                    : French
Default                     : Yes
Forced                      : No

Audio #1
ID                          : 2
Format                      : DTS
Format/Info                 : Digital Theater Systems
Codec ID                    : A_DTS
Duration                    : 1 h 44 min
Bit rate mode               : Constant
Bit rate                    : 754 kb/s
Channel(s)                  : 6 channels
Channel layout              : C L R Ls Rs LFE
Sampling rate               : 48.0 kHz
Frame rate                  : 93.750 FPS (512 SPF)
Bit depth                   : 24 bits
Compression mode            : Lossy
Stream size                 : 566 MiB (3%)
Title                       : [Dub]
Language                    : Russian
Default                     : Yes
Forced                      : No

Audio #2
ID                          : 3
Format                      : DTS
Format/Info                 : Digital Theater Systems
Codec ID                    : A_DTS
Duration                    : 1 h 44 min
Bit rate mode               : Constant
Bit rate                    : 1 509 kb/s
Channel(s)                  : 6 channels
Channel layout              : C L R Ls Rs LFE
Sampling rate               : 48.0 kHz
Frame rate                  : 93.750 FPS (512 SPF)
Bit depth                   : 24 bits
Compression mode            : Lossy
Stream size                 : 1.11 GiB (7%)
Language                    : French
Default                     : No
Forced                      : No

Text #1
ID                          : 4
Format                      : UTF-8
Codec ID                    : S_TEXT/UTF8
Codec ID/Info               : UTF-8 Plain Text
Duration                    : 1 h 42 min
Bit rate                    : 89 b/s
Count of elements           : 1418
Stream size                 : 66.7 KiB (0%)
Title                       : [ivi]
Language                    : Russian
Default                     : No
Forced                      : No

Text #2
ID                          : 5
Format                      : UTF-8
Codec ID                    : S_TEXT/UTF8
Codec ID/Info               : UTF-8 Plain Text
Duration                    : 1 h 18 min
Bit rate                    : 2 b/s
Count of elements           : 50
Stream size                 : 1.43 KiB (0%)
Title                       : [forced]
Language                    : French
Default                     : No
Forced                      : No

Menu
00:00:00.000                : en:en:00:00:00.000
00:00:24.208                : en:en:00:00:24.208
00:09:40.666                : en:en:00:09:40.666
00:22:34.666                : en:en:00:22:34.666
00:32:16.041                : en:en:00:32:16.041
00:49:55.583                : en:en:00:49:55.583
01:02:38.291                : en:en:01:02:38.291
01:16:53.625                : en:en:01:16:53.625
01:30:07.208                : en:en:01:30:07.208

资源速度为零或资源敏感被和谐时,推荐使用qBittorrent等下载软件,有条件的推荐115更好的下载软件!

下载地址:


****此区域为收费内容****    需支付 9 金币后可查看立即购买





上一篇:天才不能承受之重 (2022) 4K高清版本下载
下一篇:最佳出价(俄版)/ La migliore offerta (2013) 4K高清版本下载
回复

使用道具 举报

8

主题

1171

帖子

3481

积分

4K家园VIP

Rank: 9Rank: 9Rank: 9

积分
3481
发表于 2022-6-11 20:23:01 | 显示全部楼层
向楼主学习
回复 支持 反对

使用道具 举报

50

主题

1505

帖子

4319

积分

4K家园VIP

Rank: 9Rank: 9Rank: 9

积分
4319
发表于 2022-6-12 01:37:57 来自手机 | 显示全部楼层
非常好,顶一下
回复 支持 反对

使用道具 举报

1

主题

1322

帖子

3986

积分

4K家园VIP

Rank: 9Rank: 9Rank: 9

积分
3986
发表于 2022-6-13 04:11:19 | 显示全部楼层
我也来顶一下..
回复 支持 反对

使用道具 举报

0

主题

120

帖子

5909

积分

高级会员

Rank: 3Rank: 3

积分
5909
发表于 2022-6-13 09:25:15 | 显示全部楼层
非常好,顶一下
回复 支持 反对

使用道具 举报

1

主题

1385

帖子

3961

积分

4K家园VIP

Rank: 9Rank: 9Rank: 9

积分
3961
发表于 2022-6-14 15:58:36 来自手机 | 显示全部楼层
路过
回复 支持 反对

使用道具 举报

40

主题

1547

帖子

4431

积分

4K家园VIP

Rank: 9Rank: 9Rank: 9

积分
4431
发表于 2022-6-15 11:28:41 | 显示全部楼层
非常好,顶一下
回复 支持 反对

使用道具 举报

您需要登录后才可以回帖 登录 | 立即注册

本版积分规则

精彩图文
Archiver|手机版|TAG|Sitemap|新帖|专题|联系我们:邮箱: 4kjia.com@gmail.com   

4k家园   ©2019