[4K电影] 最佳出价(俄版)/ La migliore offerta (2013) 4K高清版本下载

[复制链接]

1868

主题

2007

帖子

1万

积分

超级版主

Rank: 8Rank: 8

积分
15027
 楼主| 发表于 2022-6-8 10:10:21 | 显示全部楼层 |阅读模式

QQ图片20220606125153_副本.png

◎译  名 最佳出价 / 寂寞拍卖师(台) / 最佳买卖 / The Best Offer
◎片  名 La migliore offerta
◎年  代 2013
◎产  地 意大利
◎类  别 剧情 / 爱情 / 悬疑
◎语  言 英语
◎上映日期 2013-01-01(意大利)
◎IMDb评分  7.8/10 from 117,494 users
◎IMDb链接  https://www.imdb.com/title/tt1924396/
◎豆瓣评分 8.4/10 from 171365 users
◎豆瓣链接 https://movie.douban.com/subject/7059671/
◎片  长 131分钟
◎导  演 朱塞佩·托纳多雷 Giuseppe Tornatore
◎编  剧 朱塞佩·托纳多雷 Giuseppe Tornatore (
◎演  员 杰弗里·拉什 Geoffrey Rush
       吉姆·斯特吉斯 Jim Sturgess
       西尔维娅·侯克斯 Sylvia Hoeks
       唐纳德·萨瑟兰 Donald Sutherland
       菲利普·杰克森 Philip Jackson
       德尔莫特·克劳利 Dermot Crowley
       基努娜·斯塔梅尔 Kiruna Stamell
       莉亚·科贝德 Liya Kebede
       肖恩·布坎纳 Sean Buchanan
       濑户叶松 Gen Seto
       卡特丽娜·卡波迪丽斯塔 Caterina Capodilista
       杰瑞·沙纳汉 Gerry Shanahan
       汉纳·布里特兰德 Hannah Britlan
       恩尼奥·莫里康内 Ennio Morricone
       毛里齐奥·萨巴蒂尼 Maurizio Sabatini
       拉法埃拉·乔凡内蒂 Raffaella Giovannetti
       毛里齐奥·米莱诺蒂 Maurizio Millenotti



◎简  介


  性情古怪的奥德曼先生(杰弗里·拉什 Geoffrey Rush 饰)是一家顶级艺术品拍卖行的鉴赏拍卖师,在他几十年的职业生涯中几乎从未失手,他最大的爱好就是收藏各种时期的女人肖像画。比利(唐纳德·萨瑟兰 Donald Sutherland 饰)帮助他用低价拍到心仪的画作,而年轻人罗伯特(吉姆·斯特吉斯 Jim Sturgess)则帮助他用技术手段鉴定古董真伪。直到一天,一个神秘的女主顾克莱尔(西尔维娅·侯克斯 Sylvia Hoeks 饰)带着大批的古董遗产走进了他的生活,克莱尔声称患有广场恐惧症因此从不露面,但是这种特殊的交流方式却让奥德曼渐渐着迷,他甚至求助于罗伯特追求女人的方法。终于有一天奥德曼放弃了自己原有的生活,可是一个惊天的阴谋正在悄悄等待着他。


◎获奖情况

  第26届欧洲电影奖(2013)
  观众选择奖(提名) 朱塞佩·托纳多雷
  最佳影片(提名) 朱塞佩·托纳多雷
  最佳导演(提名) 朱塞佩·托纳多雷
  最佳编剧(提名) 朱塞佩·托纳多雷
  最佳配乐 恩尼奥·莫里康内

  第57届意大利大卫奖(2013)
  青年大卫奖 朱塞佩·托纳多雷
  最佳影片 阿尔图罗·帕利亚 / 伊莎贝拉·科库扎 / 朱塞佩·托纳多雷
  最佳导演 朱塞佩·托纳多雷
  最佳剧本(提名) 朱塞佩·托纳多雷
  最佳制片人(提名) 阿尔图罗·帕利亚 / 伊莎贝拉·科库扎
  最佳摄影(提名) 法比奥·扎马里翁
  最佳音乐 恩尼奥·莫里康内
  最佳美术设计 毛里齐奥·萨巴蒂尼 / 拉法埃拉·乔凡内蒂
  最佳服装设计 Maurizio Millenotti
  最佳化妆(提名) 路易吉·洛切蒂
  最佳发型设计(提名) Stefano Ceccarelli
  最佳剪辑(提名) 马西莫·夸各里安
  最佳音效(提名) Gilberto Martinelli

  第4届豆瓣电影鑫像奖(2014)
  鑫豆单元 最容易忽视的好电影(提名)

Audio #1
ID                          : 2
Format                      : DTS
Format/Info                 : Digital Theater Systems
Codec ID                    : A_DTS
Duration                    : 2 h 9 min
Bit rate mode               : Constant
Bit rate                    : 1 509 kb/s
Channel(s)                  : 6 channels
Channel layout              : C L R Ls Rs LFE
Sampling rate               : 48.0 kHz
Frame rate                  : 93.750 FPS (512 SPF)
Bit depth                   : 24 bits
Compression mode            : Lossy
Stream size                 : 1.37 GiB (7%)
Title                       : [Dub]
Language                    : Russian
Default                     : Yes
Forced                      : No

Audio #2
ID                          : 3
Format                      : DTS
Format/Info                 : Digital Theater Systems
Codec ID                    : A_DTS
Duration                    : 2 h 9 min
Bit rate mode               : Constant
Bit rate                    : 1 509 kb/s
Channel(s)                  : 6 channels
Channel layout              : C L R Ls Rs LFE
Sampling rate               : 48.0 kHz
Frame rate                  : 93.750 FPS (512 SPF)
Bit depth                   : 24 bits
Compression mode            : Lossy
Stream size                 : 1.37 GiB (7%)
Title                       : [Original]
Language                    : English
Default                     : No
Forced                      : No

Text
ID                          : 4
Format                      : UTF-8
Codec ID                    : S_TEXT/UTF8
Codec ID/Info               : UTF-8 Plain Text
Duration                    : 24 min 18 s
Bit rate                    : 119 b/s
Count of elements           : 310
Stream size                 : 21.2 KiB (0%)
Title                       : Russian (Full)
Language                    : Russian
Default                     : No
Forced                      : No

Menu
00:00:00.000                : en:Chapter 00
00:00:25.750                : en:Chapter 01
00:09:46.208                : en:Chapter 02
00:20:07.250                : en:Chapter 03
00:38:36.458                : en:Chapter 04
00:51:22.541                : en:Chapter 05
01:16:23.583                : en:Chapter 06
01:34:46.583                : en:Chapter 07
01:53:21.666                : en:Chapter 08


资源速度为零或资源敏感被和谐时,推荐使用qBittorrent等下载软件,有条件的推荐115更好的下载软件!

下载地址:


****此区域为收费内容****    需支付 9 金币后可查看立即购买





上一篇:私奔B计划 / Un plan parfait (2012) 4K高清版本下载
下一篇:瞬息全宇宙(内封繁体中字)(2022) 4K高清版本下载
回复

使用道具 举报

2

主题

1422

帖子

4239

积分

4K家园VIP

Rank: 9Rank: 9Rank: 9

积分
4239
发表于 2022-6-8 10:10:23 | 显示全部楼层
楼下的接上
回复 支持 反对

使用道具 举报

5

主题

1380

帖子

3982

积分

4K家园VIP

Rank: 9Rank: 9Rank: 9

积分
3982
发表于 2022-6-8 10:10:23 | 显示全部楼层
试试看吧
回复 支持 反对

使用道具 举报

48

主题

1597

帖子

4607

积分

4K家园VIP

Rank: 9Rank: 9Rank: 9

积分
4607
发表于 2022-6-8 10:10:24 | 显示全部楼层
广告位,,坐下看看
回复 支持 反对

使用道具 举报

52

主题

1481

帖子

4273

积分

4K家园VIP

Rank: 9Rank: 9Rank: 9

积分
4273
发表于 2022-6-8 10:10:24 | 显示全部楼层
啥玩应呀
回复 支持 反对

使用道具 举报

2

主题

1668

帖子

4644

积分

4K家园VIP

Rank: 9Rank: 9Rank: 9

积分
4644
发表于 2022-6-8 10:10:24 | 显示全部楼层
呵呵。。。
回复 支持 反对

使用道具 举报

0

主题

380

帖子

2325

积分

注册会员

Rank: 2

积分
2325
发表于 2022-6-8 11:44:00 | 显示全部楼层
谢谢楼主分享
回复 支持 反对

使用道具 举报

0

主题

7

帖子

1165

积分

4K家园VIP

Rank: 9Rank: 9Rank: 9

积分
1165
发表于 2022-6-8 15:53:27 | 显示全部楼层
楼主,封面配图搞错了哦。
回复 支持 反对

使用道具 举报

0

主题

2

帖子

13

积分

新手上路

Rank: 1

积分
13
发表于 2022-6-8 19:04:11 | 显示全部楼层
楼主,封面配图搞错了哦。
回复 支持 反对

使用道具 举报

0

主题

2

帖子

84

积分

新手上路

Rank: 1

积分
84
发表于 2022-6-9 08:25:11 | 显示全部楼层
看介绍是我喜欢的类型,支持你了
回复 支持 反对

使用道具 举报

您需要登录后才可以回帖 登录 | 立即注册

本版积分规则

精彩图文
Archiver|手机版|TAG|Sitemap|新帖|专题|联系我们:邮箱: 4kjia.com@gmail.com   

4k家园   ©2019