[4K电影] 瞬息全宇宙(内封繁体中字)(2022) 4K高清版本下载

  [复制链接]

2299

主题

2448

帖子

1万

积分

超级版主

Rank: 8Rank: 8

积分
17752
 楼主| 发表于 2022-6-7 16:21:02 | 显示全部楼层 |阅读模式
本帖最后由 最爱4K哟 于 2022-6-7 16:23 编辑

QQ图片20220607160906_副本.png

◎译  名 瞬息全宇宙/妈的多重宇宙(台)/奇异女侠玩救宇宙(港)/天马行空(新加坡)/瞬息各处所有/全部世界同时一切
◎片  名 Everything Everywhere All at Once
◎年  代 2022
◎产  地 美国
◎类  别 喜剧/奇幻/冒险
◎语  言 英语/汉语普通话/粤语
◎上映日期 2022-03-11(西南偏南电影节)/2022-03-25(美国)
◎IMDb评分  8.4/10 from 80845 users
◎IMDb链接  https://www.imdb.com/title/tt6710474/
◎豆瓣评分 7.8/10 from 259294 users
◎豆瓣链接 https://movie.douban.com/subject/30314848/
◎导  演 关家永 Dan Kwan / 丹尼尔·施纳特 Daniel Scheinert
◎编  剧 关家永 Dan Kwan / 丹尼尔·施纳特 Daniel Scheinert
◎主  演 杨紫琼 Michelle Yeoh
       许玮伦 Stephanie Hsu
       关继威 Jonathan Ke Quan
       吴汉章 James Hong
       杰米·李·柯蒂斯 Jamie Lee Curtis
       塔丽·梅德尔 Tallie Medel
       珍妮·斯蕾特 Jenny Slate
       岑勇康 Harry Shum Jr.
       比夫·威夫 Biff Wiff
       布莱恩·勒 Brian Le
       安迪·黎 Andy Le
       李静 Li Jing
       苏妮特·玛尼 Sunita Mani
       阿隆·拉扎尔 Aaron Lazar
       切尔西·戈德史密斯 Chelsey Goldsmith
       克雷格·亨宁森 Craig Henningsen
       安东尼·莫利纳利 Anthony Molinari
       丹·布朗 Dan Brown
       帕努瓦特·安东尼·纳纳肯帕诺姆 Panuvat Anthony Nanakornpanom
       卡拉·玛丽·乔尔简 Cara Marie Chooljian
       兰达尔·阿切尔 Randall Archer
       埃夫卡·科瓦拉西尤斯 Efka Kvaraciejus
       奥德丽·瓦西莱夫斯基 Audrey Wasilewski
       布恩·平考 Boon Pin Koh
       蒂莫西·尤里齐 Timothy Eulich
       丹尼尔·施纳特 Daniel Scheinert
       西协美智子 Michiko Nishiwaki
       蒂莫西·斯科特·拉尔斯顿 Timothy Scott Ralston
       兰迪·纽曼 Randy Newman
       纳拉亚纳·卡布拉尔 Narayana Cabral
       D.Y. Sao D.Y. Sao
       关家永 Dan Kwan


◎简  介

  55岁的美国华裔移民伊芙琳(杨紫琼 饰)家庭事业两崩溃。在老父亲生日大寿这天,除了要阻止女儿(许玮伦 饰)暴走出柜、替无用丈夫(关继威 饰)擦屁股,还得去税务局向古板大婶(杰米·李·柯蒂斯 饰)解释不太妙的税务问题。才踏进大楼电梯,软烂丈夫竟摇身一变演起黑客帝国,声称自己是另一个宇宙的版本,而秀莲也是千万宇宙里的其中一个。还来不及理解,邪恶势力已在多元宇宙中蔓延,世界即将毁灭,只有在这个宇宙里,“一无是处”的伊芙琳才能拯救世界……

Video
ID : 1
Format : HEVC
Format/Info : High Efficiency Video Coding
Format profile : Main 10@L5@High
Codec ID : V_MPEGH/ISO/HEVC
Duration : 2 h 19 min
Bit rate : 20.5 Mb/s
Width : 3 836 pixels
Height : 2 068 pixels
Display aspect ratio : 1.85:1
Frame rate mode : Constant
Frame rate : 23.976 FPS
Color space : YUV
Chroma subsampling : 4:2:0
Bit depth : 10 bits
Bits/(Pixel*Frame) : 0.108
Stream size : 19.9 GiB (96%)
Default : Yes
Forced : No
Color range : Limited
Color primaries : BT.709
Transfer characteristics : BT.709
Matrix coefficients : BT.709

Audio
ID : 2
Format : E-AC-3 JOC
Format/Info : Enhanced AC-3 with Joint Object Coding
Commercial name : Dolby Digital Plus with Dolby Atmos
Codec ID : A_EAC3
Duration : 2 h 19 min
Bit rate mode : Constant
Bit rate : 768 kb/s
Channel(s) : 6 channels
Channel layout : L R C LFE Ls Rs
Sampling rate : 48.0 kHz
Frame rate : 31.250 FPS (1536 SPF)
Compression mode : Lossy
Stream size : 765 MiB (4%)
Language : English
Service kind : Complete Main
Default : Yes
Forced : No
Complexity index : 16
Number of dynamic objects : 15
Bed channel count : 1 channel
Bed channel configuration : LFE

Text #1
ID : 3
Format : UTF-8
Codec ID : S_TEXT/UTF8
Codec ID/Info : UTF-8 Plain Text
Duration : 2 h 17 min
Bit rate : 41 b/s
Count of elements : 1685
Stream size : 42.1 KiB (0%)
Language : English
Default : Yes
Forced : No

Text #2
ID : 4
Format : UTF-8
Codec ID : S_TEXT/UTF8
Codec ID/Info : UTF-8 Plain Text
Duration : 2 h 18 min
Bit rate : 59 b/s
Count of elements : 2320
Stream size : 60.2 KiB (0%)
Title : SDH
Language : English
Default : No
Forced : No

Text #3
ID : 5
Format : UTF-8
Codec ID : S_TEXT/UTF8
Codec ID/Info : UTF-8 Plain Text
Duration : 2 h 17 min
Bit rate : 47 b/s
Count of elements : 1722
Stream size : 48.1 KiB (0%)
Title : 中文(繁体)
Language : 中文
Default : No
Forced : No

资源速度为零或资源敏感被和谐时,推荐使用qBittorrent等下载软件,有条件的推荐115更好的下载软件!

下载地址:


游客,如果您要查看本帖隐藏内容请回复

游客,如果您要查看本帖隐藏内容请回复

游客,如果您要查看本帖隐藏内容请回复

游客,如果您要查看本帖隐藏内容请回复






上一篇:最佳出价(俄版)/ La migliore offerta (2013) 4K高清版本下载
下一篇:瑞士军刀男 / Swiss Army Man (2016) 4K高清版本下载
回复

使用道具 举报

48

主题

1605

帖子

4631

积分

4K家园VIP

Rank: 9Rank: 9Rank: 9

积分
4631
发表于 2022-6-7 16:21:06 | 显示全部楼层
还有没有别的资源,多分享些
回复 支持 反对

使用道具 举报

2

主题

1485

帖子

4259

积分

4K家园VIP

Rank: 9Rank: 9Rank: 9

积分
4259
发表于 2022-6-7 16:21:06 | 显示全部楼层
支持支持再支持
回复 支持 反对

使用道具 举报

3

主题

1385

帖子

4173

积分

4K家园VIP

Rank: 9Rank: 9Rank: 9

积分
4173
发表于 2022-6-7 17:11:45 | 显示全部楼层
这个资源我记得是一套的,楼主还有没有
回复 支持 反对

使用道具 举报

0

主题

9

帖子

140

积分

4K家园VIP

Rank: 9Rank: 9Rank: 9

积分
140
发表于 2022-6-7 18:26:34 | 显示全部楼层
看看
回复

使用道具 举报

0

主题

1

帖子

10

积分

新手上路

Rank: 1

积分
10
发表于 2022-6-7 18:34:51 | 显示全部楼层
好人一生平安
回复 支持 反对

使用道具 举报

0

主题

1

帖子

6

积分

新手上路

Rank: 1

积分
6
发表于 2022-6-7 18:45:56 | 显示全部楼层
AAAAAAAAAAAAAAAAAAAAAAA
回复 支持 反对

使用道具 举报

0

主题

4

帖子

24

积分

新手上路

Rank: 1

积分
24
发表于 2022-6-7 19:04:29 | 显示全部楼层
看看。。。。。。。。。。。。。。。。。。。。。。。。。。
回复

使用道具 举报

0

主题

1

帖子

6

积分

新手上路

Rank: 1

积分
6
发表于 2022-6-7 19:48:45 | 显示全部楼层
支持楼主
回复

使用道具 举报

0

主题

1

帖子

6

积分

新手上路

Rank: 1

积分
6
发表于 2022-6-7 20:56:12 | 显示全部楼层
支持支持
回复

使用道具 举报

您需要登录后才可以回帖 登录 | 立即注册

本版积分规则

精彩图文
Archiver|手机版|TAG|Sitemap|新帖|专题|联系我们:邮箱: 4kjia.com@gmail.com   

4k家园   ©2019