[4K电影] 瑞士军刀男 / Swiss Army Man (2016) 4K高清版本下载

[复制链接]

2299

主题

2448

帖子

1万

积分

超级版主

Rank: 8Rank: 8

积分
17752
 楼主| 发表于 2022-6-8 14:30:11 | 显示全部楼层 |阅读模式
QQ图片20220608141806.png

◎译  名 瑞士军刀男 / 救你命3000(港) / 尸控奇幻旅程(台) / 瑞士军人 / 瑞士军刀人
◎片  名 Swiss Army Man
◎年  代 2016
◎产  地 美国
◎类  别 剧情 / 喜剧 / 爱情 / 奇幻
◎语  言 英语
◎上映日期 2016-01-22(圣丹斯电影节) / 2016-07-01(美国)
◎IMDb评分  7.4/10 from 21869 users
◎IMDb链接  https://www.imdb.com/title/tt4034354/
◎豆瓣评分 7.8/10 (98235人评价)
◎豆瓣链接 https://movie.douban.com/subject/26437237/
◎片  长 97分钟
◎导  演 丹·关 Dan Kwan / 丹尼尔·施纳特 Daniel Scheinert
◎编  剧 丹·关 Dan Kwan / 丹尼尔·施纳特 Daniel Scheinert
◎演  员 保罗·达诺 Paul Dano
       丹尼尔·雷德克里夫 Daniel Radcliffe
       玛丽·伊丽莎白·温斯特德 Mary Elizabeth Winstead
       蒂莫西·尤里齐 Timothy Eulich
       玛丽卡·卡斯蒂尔 Marika Casteel
            理查德·格罗斯 Richard Gross


◎简  介

  在一个荒无人烟的小岛上,不善于和人沟通的汉克(保罗·达诺 Paul Dano 饰)对人生早已绝望,于是他决定亲手了结自己的性命。就在关键时刻,一具尸体漂到沙滩上。该尸体(丹尼尔·雷德克里夫 Daniel Radcliffe 饰)臭屁连天,虽然苍白浮肿,却似乎有生命一般。汉克大喜过望,为这个不同寻常的朋友其名曼尼。更令他兴奋不已的是,曼尼就好像一把多功能的瑞士军刀,帮他解决了诸如生火、砍树、饮水等诸多现实问题。曼尼的出现为汉克打开新世界的大门,死神似乎就此遁去。失败者汉克拥抱着属于他的奇幻的世界。
汉克与曼尼,这对古怪的朋友启程踏上一段不寻常的旅途……

◎获奖情况 (共5项)
  第32届圣丹斯电影节 (2016)
  评审团大奖 剧情片(提名)

  第32届美国独立精神奖 (2017)
  最佳处女作(提名)
  最佳剪辑(提名)

  第26届哥谭独立电影奖 (2016)
  最佳突破导演奖(提名)

  第3届豆瓣电影年度榜单 (2016)
  10月最受关注电影(提名)

Video
ID : 1
Format : HEVC
Format/Info : High Efficiency Video Coding
Format profile : Main 10@L5@High
HDR format : SMPTE ST 2086, HDR10 compatible
Codec ID : V_MPEGH/ISO/HEVC
Duration : 1 h 37 min
Bit rate : 14.3 Mb/s
Width : 3 832 pixels
Height : 1 606 pixels
Display aspect ratio : 2.40:1
Frame rate mode : Constant
Frame rate : 23.976 FPS
Color space : YUV
Chroma subsampling : 4:2:0 (Type 2)
Bit depth : 10 bits
Bits/(Pixel*Frame) : 0.097
Stream size : 9.74 GiB (58%)
Default : Yes
Forced : No
Color range : Limited
Color primaries : BT.2020
Transfer characteristics : PQ
Matrix coefficients : BT.2020 non-constant
Mastering display color primaries : Display P3
Mastering display luminance : min: 0.0050 cd/m2, max: 1000 cd/m2
Maximum Content Light Level : 402 cd/m2
Maximum Frame-Average Light Level : 98 cd/m2

Audio #1
ID : 2
Format : MLP FBA 16-ch
Format/Info : Meridian Lossless Packing FBA with 16-channel presentation
Commercial name : Dolby TrueHD with Dolby Atmos
Codec ID : A_TRUEHD
Duration : 1 h 37 min
Bit rate mode : Variable
Bit rate : 4 685 kb/s
Maximum bit rate : 8 526 kb/s
Channel(s) : 8 channels
Channel layout : L R C LFE Ls Rs Lb Rb
Sampling rate : 48.0 kHz
Frame rate : 1 200.000 FPS (40 SPF)
Compression mode : Lossless
Delay relative to video : 1 s 100 ms
Stream size : 3.19 GiB (19%)
Title : TrueHD Atmos 7.1
Language : English
Default : Yes
Forced : No
Number of dynamic objects : 15
Bed channel count : 1 channel
Bed channel configuration : LFE

Audio #2
ID : 3
Format : DTS XLL
Format/Info : Digital Theater Systems
Commercial name : DTS-HD Master Audio
Codec ID : A_DTS
Duration : 1 h 37 min
Bit rate mode : Variable
Bit rate : 4 395 kb/s
Channel(s) : 8 channels
Channel layout : C L R LFE Lb Rb Lss Rss
Sampling rate : 48.0 kHz
Frame rate : 93.750 FPS (512 SPF)
Bit depth : 24 bits
Compression mode : Lossless
Delay relative to video : 1 s 100 ms
Stream size : 2.99 GiB (18%)
Title : DTS-HD MA 7.1
Language : English
Default : No
Forced : No

Audio #3
ID : 4
Format : AC-3
Format/Info : Audio Coding 3
Commercial name : Dolby Digital
Format settings : Dolby Surround EX
Codec ID : A_AC3
Duration : 1 h 37 min
Bit rate mode : Constant
Bit rate : 640 kb/s
Channel(s) : 6 channels
Channel layout : L R C LFE Ls Rs
Sampling rate : 48.0 kHz
Frame rate : 31.250 FPS (1536 SPF)
Compression mode : Lossy
Delay relative to video : 1 s 100 ms
Stream size : 446 MiB (3%)
Title : DD 5.1
Language : English
Service kind : Complete Main
Default : No
Forced : No

Audio #4
ID : 5
Format : E-AC-3 JOC
Format/Info : Enhanced AC-3 with Joint Object Coding
Commercial name : Dolby Digital Plus with Dolby Atmos
Codec ID : A_EAC3
Duration : 1 h 37 min
Bit rate mode : Constant
Bit rate : 768 kb/s
Channel(s) : 6 channels
Channel layout : L R C LFE Ls Rs
Sampling rate : 48.0 kHz
Frame rate : 31.250 FPS (1536 SPF)
Compression mode : Lossy
Delay relative to video : 1 s 100 ms
Stream size : 535 MiB (3%)
Language : English
Service kind : Complete Main
Default : No
Forced : No
Complexity index : 16
Number of dynamic objects : 15
Bed channel count : 1 channel
Bed channel configuration : LFE

Text #1
ID : 6
Format : UTF-8
Codec ID : S_TEXT/UTF8
Codec ID/Info : UTF-8 Plain Text
Duration : 1 h 37 min
Bit rate : 55 b/s
Count of elements : 1633
Stream size : 39.2 KiB (0%)
Title : English CC
Language : English
Default : No
Forced : No

Text #2
ID : 7
Format : PGS
Muxing mode : zlib
Codec ID : S_HDMV/PGS
Codec ID/Info : Picture based subtitle format used on BDs/HD-DVDs
Duration : 1 h 36 min
Bit rate : 34.3 kb/s
Count of elements : 2791
Stream size : 23.7 MiB (0%)
Title : English (SDH)
Language : English
Default : No
Forced : No

Text #3
ID : 8
Format : PGS
Muxing mode : zlib
Codec ID : S_HDMV/PGS
Codec ID/Info : Picture based subtitle format used on BDs/HD-DVDs
Duration : 1 h 30 min
Bit rate : 28.0 kb/s
Count of elements : 2047
Stream size : 18.2 MiB (0%)
Title : Spanish (Latin American)
Language : Spanish
Default : No
Forced : No

Menu
00:00:00.000 : en:Chapter 01
00:12:12.000 : en:Chapter 02
00:28:12.000 : en:Chapter 03
00:37:18.000 : en:Chapter 04
00:47:43.000 : en:Chapter 05
00:57:58.000 : en:Chapter 06
01:08:12.000 : en:Chapter 07
01:21:55.000 : en:Chapter 08
01:31:36.000 : en:Chapter 09
资源速度为零或资源敏感被和谐时,推荐使用qBittorrent等下载软件,有条件的推荐115更好的下载软件!

下载地址:


游客,如果您要查看本帖隐藏内容请回复

游客,如果您要查看本帖隐藏内容请回复




上一篇:瞬息全宇宙(内封繁体中字)(2022) 4K高清版本下载
下一篇:美式晚宴 / Dinner in America (2020) 4K高清版本下载
回复

使用道具 举报

0

主题

1369

帖子

4121

积分

4K家园VIP

Rank: 9Rank: 9Rank: 9

积分
4121
发表于 2022-6-8 14:30:16 来自手机 | 显示全部楼层
呵呵,低调,低调!
回复 支持 反对

使用道具 举报

57

主题

1552

帖子

4506

积分

4K家园VIP

Rank: 9Rank: 9Rank: 9

积分
4506
发表于 2022-6-8 14:53:46 | 显示全部楼层
感谢楼主发帖,前排顶起
回复 支持 反对

使用道具 举报

0

主题

1

帖子

6

积分

新手上路

Rank: 1

积分
6
发表于 2022-6-8 23:12:04 | 显示全部楼层

best webcam show

best webcam show
回复 支持 反对

使用道具 举报

53

主题

1251

帖子

3821

积分

4K家园VIP

Rank: 9Rank: 9Rank: 9

积分
3821
发表于 2022-6-9 00:06:10 | 显示全部楼层
试试先,好用再说
回复 支持 反对

使用道具 举报

1

主题

1389

帖子

4187

积分

4K家园VIP

Rank: 9Rank: 9Rank: 9

积分
4187
发表于 2022-6-9 06:03:39 来自手机 | 显示全部楼层
怎么这么大,希望我电视能看啊
回复 支持 反对

使用道具 举报

0

主题

13

帖子

102

积分

新手上路

Rank: 1

积分
102
发表于 2022-6-9 11:09:27 | 显示全部楼层
现在电影资源占用空间太大了。
回复 支持 反对

使用道具 举报

3

主题

1311

帖子

3955

积分

4K家园VIP

Rank: 9Rank: 9Rank: 9

积分
3955
发表于 2022-6-9 14:12:20 | 显示全部楼层
看起来好像不错的样子
回复 支持 反对

使用道具 举报

0

主题

1

帖子

6

积分

新手上路

Rank: 1

积分
6
发表于 2022-6-11 22:02:49 | 显示全部楼层

webcam teens video

webcam teens video
回复 支持 反对

使用道具 举报

您需要登录后才可以回帖 登录 | 立即注册

本版积分规则

精彩图文
Archiver|手机版|TAG|Sitemap|新帖|专题|联系我们:邮箱: 4kjia.com@gmail.com   

4k家园   ©2019