[4K电影] 美式晚宴 / Dinner in America (2020) 4K高清版本下载

[复制链接]

2299

主题

2448

帖子

1万

积分

超级版主

Rank: 8Rank: 8

积分
17752
 楼主| 发表于 2022-6-8 14:46:45 | 显示全部楼层 |阅读模式

QQ图片20220608144533_副本.png

◎译  名 美式晚宴 / 美国心庞克情(台)
◎片  名 Dinner in America
◎年  代 2020
◎产  地 美国
◎类  别 剧情 / 喜剧 / 音乐
◎语  言 英语
◎上映日期 2020-01-24(圣丹斯电影节)
◎IMDb评分  7.2/10 from 2465 users
◎IMDb链接  https://www.imdb.com/title/tt9058654/
◎豆瓣评分 010 from 0 users
◎豆瓣链接 https://movie.douban.com/subject/34907392/
◎片  长 108分钟
◎导  演 亚当·卡特·瑞迈尔 Adam Carter Rehmeier
◎编  剧 亚当·卡特·瑞迈尔 Adam Carter Rehmeier
◎演  员 凯尔·加尔纳 Kyle Gallner
       艾米莉· 斯凯格斯 Emily Skeggs
       莉·汤普森 Lea Thompson
       汉娜·马克斯 Hannah Marks
       玛丽·莱恩·莱杰斯库 Mary Lynn Rajskub
       格里芬·格鲁克 Griffin Gluck
       尼克·齐兰德 Nick Chinlund
       瑞恩·马尔伽里尼 Ryan Malgarini
       帕特·希利 Pat Healy
       尼科·格莱瑟姆 Nico Greetham
       大卫·佑 David Yow
       瑞奇·韦恩 Ricky Wayne
       珍妮弗·普雷迪格 Jennifer Prediger
       肖恩·罗杰斯 Sean Rogers
       西迪·亨德森 Sidi Henderson


◎简  介

  一位林朋克摇滚歌手和一位痴迷于他的乐队的年轻女子意外坠入爱河,一起在美国腐朽的中西部郊区进行史诗般的旅行。

◎获奖情况 (共1项)
  第36届圣丹斯电影节 (2020)
  评审团大奖 剧情片(提名) 亚当·卡特·瑞迈尔

Video
ID : 1
Format : HEVC
Format/Info : High Efficiency Video Coding
Format profile : Main 10@L5@High
Codec ID : V_MPEGH/ISO/HEVC
Duration : 1 h 48 min
Bit rate : 20.6 Mb/s
Width : 3 836 pixels
Height : 1 596 pixels
Display aspect ratio : 2.40:1
Frame rate mode : Constant
Frame rate : 23.976 FPS
Color space : YUV
Chroma subsampling : 4:2:0
Bit depth : 10 bits
Bits/(Pixel*Frame) : 0.140
Stream size : 15.5 GiB (84%)
Default : Yes
Forced : No
Color range : Limited
Color primaries : BT.709
Transfer characteristics : BT.709
Matrix coefficients : BT.709

Audio #1
ID : 2
ID in the original source medium : 4352 (0x1100)
Format : DTS XLL
Format/Info : Digital Theater Systems
Commercial name : DTS-HD Master Audio
Codec ID : A_DTS
Duration : 1 h 48 min
Bit rate mode : Variable
Bit rate : 3 383 kb/s
Channel(s) : 6 channels
Channel layout : C L R Ls Rs LFE
Sampling rate : 48.0 kHz
Frame rate : 93.750 FPS (512 SPF)
Bit depth : 24 bits
Compression mode : Lossless
Delay relative to video : 9 s 0 ms
Stream size : 2.56 GiB (14%)
Title : DTS-HD MA 5.1
Language : English
Default : Yes
Forced : No
Original source medium : Blu-ray

Audio #2
ID : 3
Format : AC-3
Format/Info : Audio Coding 3
Commercial name : Dolby Digital
Codec ID : A_AC3
Duration : 1 h 48 min
Bit rate mode : Constant
Bit rate : 384 kb/s
Channel(s) : 6 channels
Channel layout : L R C LFE Ls Rs
Sampling rate : 48.0 kHz
Frame rate : 31.250 FPS (1536 SPF)
Compression mode : Lossy
Stream size : 297 MiB (2%)
Title : DD 5.1
Language : English
Service kind : Complete Main
Default : No
Forced : No

Text #1
ID : 4
Format : UTF-8
Codec ID : S_TEXT/UTF8
Codec ID/Info : UTF-8 Plain Text
Duration : 1 h 44 min
Bit rate : 65 b/s
Count of elements : 2052
Stream size : 49.6 KiB (0%)
Title : English CC
Language : English
Default : Yes
Forced : No

Text #2
ID : 5
ID in the original source medium : 4608 (0x1200)
Format : PGS
Muxing mode : zlib
Codec ID : S_HDMV/PGS
Codec ID/Info : Picture based subtitle format used on BDs/HD-DVDs
Duration : 1 h 47 min
Bit rate : 35.1 kb/s
Count of elements : 3260
Stream size : 26.9 MiB (0%)
Language : English
Default : No
Forced : No
Original source medium : Blu-ray

Menu
00:00:00.000 : en:Chapter 01
00:10:31.172 : en:Chapter 02
00:21:01.052 : en:Chapter 03
00:32:42.045 : en:Chapter 04
00:42:26.546 : en:Chapter 05
00:53:03.141 : en:Chapter 06
01:02:52.731 : en:Chapter 07
01:11:14.607 : en:Chapter 08
01:24:03.793 : en:Chapter 09
01:32:23.293 : en:Chapter 10
01:44:10.500 : en:Chapter 11


资源速度为零或资源敏感被和谐时,推荐使用qBittorrent等下载软件,有条件的推荐115更好的下载软件!

下载地址:


游客,如果您要查看本帖隐藏内容请回复





上一篇:瑞士军刀男 / Swiss Army Man (2016) 4K高清版本下载
下一篇:唐顿庄园2 / Downton Abbey: A New Era (2022) 4K高清版本下载
回复

使用道具 举报

46

主题

1457

帖子

4199

积分

4K家园VIP

Rank: 9Rank: 9Rank: 9

积分
4199
发表于 2022-6-8 14:46:49 来自手机 | 显示全部楼层
感谢推荐,确实不错
回复 支持 反对

使用道具 举报

0

主题

1

帖子

6

积分

新手上路

Rank: 1

积分
6
发表于 2022-6-8 21:52:28 | 显示全部楼层
:)
回复

使用道具 举报

0

主题

20

帖子

169

积分

新手上路

Rank: 1

积分
169
发表于 2022-6-9 00:48:32 | 显示全部楼层
感谢感谢
回复

使用道具 举报

2

主题

263

帖子

3269

积分

中级会员

Rank: 4

积分
3269
发表于 2022-6-9 09:11:37 | 显示全部楼层
感谢                              
回复 支持 反对

使用道具 举报

201

主题

1750

帖子

4812

积分

4K家园VIP

Rank: 9Rank: 9Rank: 9

积分
4812
发表于 2022-6-9 17:40:11 | 显示全部楼层
佩服佩服!
回复 支持 反对

使用道具 举报

14

主题

1225

帖子

3649

积分

4K家园VIP

Rank: 9Rank: 9Rank: 9

积分
3649
发表于 2022-6-9 19:17:41 | 显示全部楼层
啥玩应呀
回复 支持 反对

使用道具 举报

53

主题

1251

帖子

3821

积分

4K家园VIP

Rank: 9Rank: 9Rank: 9

积分
3821
发表于 2022-6-9 20:00:38 | 显示全部楼层
OMG!介是啥东东!!!
回复 支持 反对

使用道具 举报

1

主题

1308

帖子

3948

积分

4K家园VIP

Rank: 9Rank: 9Rank: 9

积分
3948
发表于 2022-6-10 14:18:58 来自手机 | 显示全部楼层
支持楼主,用户楼主,楼主英明呀!!!
回复 支持 反对

使用道具 举报

您需要登录后才可以回帖 登录 | 立即注册

本版积分规则

精彩图文
Archiver|手机版|TAG|Sitemap|新帖|专题|联系我们:邮箱: 4kjia.com@gmail.com   

4k家园   ©2019