[4K电影] 唐顿庄园2 / Downton Abbey: A New Era (2022) 4K高清版本下载

[复制链接]

1868

主题

2007

帖子

1万

积分

超级版主

Rank: 8Rank: 8

积分
15027
 楼主| 发表于 2022-6-9 13:20:24 | 显示全部楼层 |阅读模式
本帖最后由 没完没了 于 2022-6-9 19:57 编辑

QQ图片20220609121911.png

◎译  名 唐顿庄园2 / 唐顿庄园电影版2 / 唐顿庄园:全新世代(港/台) / 唐顿庄园2:新时代 / 唐顿庄园2:新纪元 / Downton Abbey
◎片  名 Downton Abbey: A New Era
◎年  代 2022
◎产  地 美国
◎类  别 剧情 / 爱情
◎语  言 英语
◎上映日期 2022-05-20(美国/中国大陆) / 2022-04-27(法国) / 2022-04-29(英国)
◎IMDb评分  7.7/10 from 7885 users
◎IMDb链接  https://www.imdb.com/title/tt11703710
◎豆瓣评分 8.4/10 from 15125 users
◎豆瓣链接 https://movie.douban.com/subject/30314848/
◎片  长 124分钟
◎导  演 西蒙·柯蒂斯 Simon Curtis
◎编  剧 朱利安·费罗斯 Julian Fellowes
◎主  演 米歇尔·道克瑞 Michelle Dockery
       休·博纳维尔 Hugh Bonneville
       伊丽莎白·麦戈文 Elizabeth McGovern
       玛吉·史密斯 Maggie Smith
       劳拉·卡尔迈克尔 Laura Carmichael
       吉姆·卡特 Jim Carter
       布兰登·柯伊尔 Brendan Coyle
       凯文·道尔 Kevin Doyle
       琼安·弗洛加特 Joanne Froggatt
       哈利·海顿-佩顿 Harry Hadden-Paton
       罗伯·詹姆斯-克里尔 Rob James-Collier
       艾伦·里奇 Allen Leech
       菲利斯·洛根 Phyllis Logan
       索菲 麦希拉 Sophie Mcshera
       塔彭丝·米德尔顿 Tuppence Middleton
       莱斯利·尼科尔 Lesley Nicol
       艾美达·斯丹顿 Imelda Staunton
       佩内洛普·威尔顿 Penelope Wilton
       萨曼莎·邦德 Samantha Bond
       拉奎尔·卡西迪 Raquel Cassidy
       迈克尔·福克斯 Michael Fox
                   休·丹西 Hugh Dancy
                   苏·乔斯顿 Sue Johnston
                   道格拉斯·瑞斯 Douglas Reith
                   劳拉·哈德克 Laura Haddock
                   乔纳森·扎凯 Jonathan Zaccaï
                   多米尼克·韦斯特 Dominic West
                   亚历克斯·麦奎因 Alex Macqueen
                   查理·沃森 Charlie Watson
                   保罗·柯普雷 Paul Copley
                   奥利维耶·克拉弗里 Olivier Claverie



◎简  介


         影片为2019年《唐顿庄园》电影的续集,在这一部故事中,唐顿庄园将迎来一个崭新的时代,与此同时,老伯爵夫人(玛吉·史密斯 Maggie Smith 饰)的一段神秘过往也将被揭晓。
Video
ID                             : 1
Format                         : HEVC
Format/Info                    : High Efficiency Video Coding
Format profile                 : Main 10@L5@High
Codec ID                       : V_MPEGH/ISO/HEVC
Duration                       : 2 h 4 min
Bit rate                       : 11.6 Mb/s
Width                          : 3 840 pixels
Height                         : 1 602 pixels
Display aspect ratio           : 2.40:1
Frame rate mode                : Constant
Frame rate                     : 23.976 (24000/1001) FPS
Color space                    : YUV
Chroma subsampling             : 4:2:0
Bit depth                      : 10 bits
Bits/(Pixel*Frame)             : 0.079
Stream size                    : 10.2 GiB (92%)
Default                        : Yes
Forced                         : No
Color range                    : Limited
Color primaries                : BT.709
Transfer characteristics       : BT.709
Matrix coefficients            : BT.709

Audio
ID                             : 2
Format                         : E-AC-3 JOC
Format/Info                    : Enhanced AC-3 with Joint Object Coding
Commercial name                : Dolby Digital Plus with Dolby Atmos
Codec ID                       : A_EAC3
Duration                       : 2 h 4 min
Bit rate mode                  : Constant
Bit rate                       : 768 kb/s
Channel(s)                     : 6 channels
Channel layout                 : L R C LFE Ls Rs
Sampling rate                  : 48.0 kHz
Frame rate                     : 31.250 FPS (1536 SPF)
Compression mode               : Lossy
Stream size                    : 686 MiB (6%)
Language                       : English
Service kind                   : Complete Main
Default                        : Yes
Forced                         : No
Complexity index               : 16
Number of dynamic objects      : 15
Bed channel count              : 1 channel
Bed channel configuration      : LFE
资源速度为零或资源敏感被和谐时,推荐使用qBittorrent等下载软件,有条件的推荐115更好的下载软件!

下载地址:

****此区域为收费内容****    需支付 9 金币后可查看立即购买

游客,如果您要查看本帖隐藏内容请回复
游客,如果您要查看本帖隐藏内容请回复

游客,如果您要查看本帖隐藏内容请回复

游客,如果您要查看本帖隐藏内容请回复

游客,如果您要查看本帖隐藏内容请回复






上一篇:美式晚宴 / Dinner in America (2020) 4K高清版本下载
下一篇:海浪 / Bølgen (2015) 4K高清版本下载
回复

使用道具 举报

50

主题

1538

帖子

4450

积分

4K家园VIP

Rank: 9Rank: 9Rank: 9

积分
4450
发表于 2022-6-9 13:20:29 | 显示全部楼层
我是个凑数的。。。
回复 支持 反对

使用道具 举报

5

主题

1645

帖子

4555

积分

中级会员

Rank: 4

积分
4555
发表于 2022-6-9 15:49:32 | 显示全部楼层
众里寻他千百度,蓦然回首在这里!
回复 支持 反对

使用道具 举报

52

主题

1499

帖子

4365

积分

4K家园VIP

Rank: 9Rank: 9Rank: 9

积分
4365
发表于 2022-6-9 20:24:15 | 显示全部楼层
分享的不错,希望楼主继续分享
回复 支持 反对

使用道具 举报

0

主题

1309

帖子

3943

积分

4K家园VIP

Rank: 9Rank: 9Rank: 9

积分
3943
发表于 2022-6-10 00:25:31 | 显示全部楼层
不错 支持下
回复 支持 反对

使用道具 举报

2

主题

1416

帖子

4270

积分

4K家园VIP

Rank: 9Rank: 9Rank: 9

积分
4270
发表于 2022-6-10 03:38:26 | 显示全部楼层
回复 支持 反对

使用道具 举报

0

主题

1

帖子

6

积分

新手上路

Rank: 1

积分
6
发表于 2022-6-15 07:55:23 | 显示全部楼层

youtucam

youtucam
回复

使用道具 举报

0

主题

3

帖子

12

积分

新手上路

Rank: 1

积分
12
发表于 5 天前 | 显示全部楼层
good good good good good good good
回复 支持 反对

使用道具 举报

0

主题

3

帖子

12

积分

新手上路

Rank: 1

积分
12
发表于 5 天前 | 显示全部楼层
good good good good good good good
回复 支持 反对

使用道具 举报

0

主题

3

帖子

12

积分

新手上路

Rank: 1

积分
12
发表于 5 天前 | 显示全部楼层
good good good good good good good
回复 支持 反对

使用道具 举报

您需要登录后才可以回帖 登录 | 立即注册

本版积分规则

精彩图文
Archiver|手机版|TAG|Sitemap|新帖|专题|联系我们:邮箱: 4kjia.com@gmail.com   

4k家园   ©2019