[4K电影] 海浪 / Bølgen (2015) 4K高清版本下载

[复制链接]

1657

主题

1728

帖子

1万

积分

超级版主

Rank: 8Rank: 8

积分
18334
 楼主| 发表于 2022-6-9 20:23:20 | 显示全部楼层 |阅读模式
QQ图片20220609201302_副本.png

◎译  名 海浪 / 惊逃骇浪(港) / 大浪 / The Wave
◎片  名 B?lgen
◎年  代 2015
◎产  地 挪威
◎类  别 剧情 / 动作 / 惊悚
◎语  言 挪威语
◎上映日期 2015-08-28(挪威)
◎IMDb评分  6.6/10 from 37622 users
◎IMDb链接  https://www.imdb.com/title/tt3616916/
◎豆瓣评分 6.1/10 from 2612 users
◎豆瓣链接 https://movie.douban.com/subject/26600346/
◎片  长 104分钟
◎导  演 罗阿尔·乌索格 Roar Uthaug
◎编  剧 约翰·科雷·拉凯 John K?re Raake / 哈拉尔·罗斯诺瑙·艾格 Harald Rosenl?w-Eeg
◎主  演 克里斯托弗·约纳尔 Kristoffer Joner
       托玛斯·博·拉森 Thomas Bo Larsen
       弗里迪夫·梭哈姆 Fridtjov S?heim
       安妮·达尔·托普 Ane Dahl Torp
       乔纳斯·霍夫·奥夫特布洛 Jonas Hoff Oftebro
       伊迪丝·哈根鲁德-桑德 Edith Haagenrud-Sande
       亚瑟·博宁 Arthur Berning
       梅特·阿格尼特·豪恩 Mette Agnete Horn
       莱拉·古蒂 Laila Goody
       艾丽·哈尔博 Eili Harboe
       西莉耶·布雷维克 Silje Breivik


◎简  介

  位于挪威西部的?knes与Hegguraksla山脉虽然景色怡人,但是山体的不稳定也留下了巨大的安全隐患。一旦山体滑坡,就会造成巨大的海啸。人们早已在为此担心,直到有一天它终于发生了。山体滑坡造成了高达85米的巨型海啸,即将让挪威从地图上消失。一名地质学家预知了这一切,必须开始一场和时间的赛跑。

Video
ID : 1
Format : HEVC
Format/Info : High Efficiency Video Coding
Format profile : Main 10@L5@High
HDR format : Dolby Vision, Version 1.0, dvhe.05.06, BL+RPU
Codec ID : V_MPEGH/ISO/HEVC
Duration : 1 h 45 min
Bit rate : 24.2 Mb/s
Width : 3 840 pixels
Height : 1 600 pixels
Display aspect ratio : 2.40:1
Frame rate mode : Constant
Frame rate : 23.976 (24000/1001) FPS
Color space : YUV
Chroma subsampling : 4:2:0
Bit depth : 10 bits
Bits/(Pixel*Frame) : 0.164
Stream size : 17.8 GiB (71%)
Language : English
Default : Yes
Forced : No

Audio #1
ID : 2
Format : MLP FBA 16-ch
Format/Info : Meridian Lossless Packing FBA with 16-channel presentation
Commercial name : Dolby TrueHD with Dolby Atmos
Codec ID : A_TRUEHD
Duration : 1 h 45 min
Bit rate mode : Variable
Bit rate : 4 579 kb/s
Maximum bit rate : 7 962 kb/s
Channel(s) : 8 channels
Channel layout : L R C LFE Ls Rs Lb Rb
Sampling rate : 48.0 kHz
Frame rate : 1 200.000 FPS (40 SPF)
Compression mode : Lossless
Stream size : 3.36 GiB (13%)
Title : TrueHD 7.1 Atmos
Language : Norwegian
Default : Yes
Forced : No
Number of dynamic objects : 11
Bed channel count : 1 channel
Bed channel configuration : LFE

Audio #2
ID : 3
Format : DTS XLL
Format/Info : Digital Theater Systems
Commercial name : DTS-HD Master Audio
Codec ID : A_DTS
Duration : 1 h 45 min
Bit rate mode : Variable
Bit rate : 3 874 kb/s
Channel(s) : 8 channels
Channel layout : C L R LFE Lb Rb Lss Rss
Sampling rate : 48.0 kHz
Frame rate : 93.750 FPS (512 SPF)
Bit depth : 24 bits
Compression mode : Lossless
Stream size : 2.85 GiB (11%)
Title : DTS-HD MA 7.1
Language : Norwegian
Default : No
Forced : No

Audio #3
ID : 4
Format : AC-3
Format/Info : Audio Coding 3
Commercial name : Dolby Digital
Format settings : Dolby Surround EX
Codec ID : A_AC3
Duration : 1 h 45 min
Bit rate mode : Constant
Bit rate : 640 kb/s
Channel(s) : 6 channels
Channel layout : L R C LFE Ls Rs
Sampling rate : 48.0 kHz
Frame rate : 31.250 FPS (1536 SPF)
Compression mode : Lossy
Stream size : 481 MiB (2%)
Title : DD 5.1
Language : Norwegian
Service kind : Complete Main
Default : No
Forced : No

Audio #4
ID : 5
Format : AC-3
Format/Info : Audio Coding 3
Commercial name : Dolby Digital
Codec ID : A_AC3
Duration : 1 h 45 min
Bit rate mode : Constant
Bit rate : 384 kb/s
Channel(s) : 6 channels
Channel layout : L R C LFE Ls Rs
Sampling rate : 48.0 kHz
Frame rate : 31.250 FPS (1536 SPF)
Compression mode : Lossy
Stream size : 289 MiB (1%)
Language : Norwegian
Service kind : Complete Main
Default : No
Forced : No

Audio #5
ID : 6
Format : AC-3
Format/Info : Audio Coding 3
Commercial name : Dolby Digital
Codec ID : A_AC3
Duration : 1 h 45 min
Bit rate mode : Constant
Bit rate : 384 kb/s
Channel(s) : 6 channels
Channel layout : L R C LFE Ls Rs
Sampling rate : 48.0 kHz
Frame rate : 31.250 FPS (1536 SPF)
Compression mode : Lossy
Stream size : 289 MiB (1%)
Language : English
Service kind : Complete Main
Default : No
Forced : No

Text #1
ID : 7
Format : UTF-8
Codec ID : S_TEXT/UTF8
Codec ID/Info : UTF-8 Plain Text
Duration : 1 h 31 min
Bit rate : 0 b/s
Count of elements : 45
Stream size : 280 Bytes (0%)
Language : English
Default : Yes
Forced : No

Text #2
ID : 8
Format : UTF-8
Codec ID : S_TEXT/UTF8
Codec ID/Info : UTF-8 Plain Text
Duration : 1 h 39 min
Bit rate : 3 b/s
Count of elements : 195
Stream size : 2.53 KiB (0%)
Title : SDH
Language : English
Default : No
Forced : No

Text #3
ID : 9
Format : PGS
Muxing mode : zlib
Codec ID : S_HDMV/PGS
Codec ID/Info : Picture based subtitle format used on BDs/HD-DVDs
Duration : 1 h 44 min
Bit rate : 25.1 kb/s
Count of elements : 1224
Stream size : 18.7 MiB (0%)
Language : English
Default : No
Forced : No

Text #4
ID : 10
Format : PGS
Muxing mode : zlib
Codec ID : S_HDMV/PGS
Codec ID/Info : Picture based subtitle format used on BDs/HD-DVDs
Duration : 1 h 44 min
Bit rate : 29.6 kb/s
Count of elements : 1549
Stream size : 22.2 MiB (0%)
Title : SDH
Language : English
Default : No
Forced : No

Text #5
ID : 11
Format : PGS
Muxing mode : zlib
Codec ID : S_HDMV/PGS
Codec ID/Info : Picture based subtitle format used on BDs/HD-DVDs
Duration : 1 h 44 min
Bit rate : 25.3 kb/s
Count of elements : 1256
Stream size : 18.9 MiB (0%)
Language : Spanish
Default : No
Forced : No

Menu
00:00:00.000 : en:Chapter 1
00:07:33.912 : en:Chapter 2
00:14:46.094 : en:Chapter 3
00:21:30.832 : en:Chapter 4
00:31:05.198 : en:Chapter 5
00:35:33.133 : en:Chapter 6
00:42:02.939 : en:Chapter 7
00:47:37.315 : en:Chapter 8
00:53:34.881 : en:Chapter 9
01:00:09.109 : en:Chapter 10
01:05:37.270 : en:Chapter 11
01:12:14.417 : en:Chapter 12
01:20:02.552 : en:Chapter 13
01:25:30.714 : en:Chapter 14
01:29:19.693 : en:Chapter 15
01:38:03.717 : en:Chapter 16


资源速度为零或资源敏感被和谐时,推荐使用qBittorrent等下载软件,有条件的推荐115更好的下载软件!

下载地址:


游客,如果您要查看本帖隐藏内容请回复

游客,如果您要查看本帖隐藏内容请回复

游客,如果您要查看本帖隐藏内容请回复






上一篇:唐顿庄园2 / Downton Abbey: A New Era (2022) 4K高清版本下载
下一篇:假偶成真 / My Fake Boyfriend (2022) 4K高清版本下载
回复

使用道具 举报

48

主题

1540

帖子

4430

积分

4K家园VIP

Rank: 9Rank: 9Rank: 9

积分
4430
发表于 2022-6-9 20:23:24 | 显示全部楼层
广告位,,坐下看看
回复 支持 反对

使用道具 举报

46

主题

1503

帖子

4353

积分

4K家园VIP

Rank: 9Rank: 9Rank: 9

积分
4353
发表于 2022-6-9 20:23:25 | 显示全部楼层
4K版的应该更清晰吧
回复 支持 反对

使用道具 举报

0

主题

1656

帖子

4598

积分

4K家园VIP

Rank: 9Rank: 9Rank: 9

积分
4598
发表于 2022-6-9 20:27:43 | 显示全部楼层
一直在看
回复 支持 反对

使用道具 举报

0

主题

42

帖子

1290

积分

注册会员

Rank: 2

积分
1290
发表于 2022-6-9 21:21:53 | 显示全部楼层
真是好东西,不下不行!!
回复 支持 反对

使用道具 举报

1

主题

1384

帖子

3994

积分

4K家园VIP

Rank: 9Rank: 9Rank: 9

积分
3994
发表于 2022-6-9 22:20:53 | 显示全部楼层
路过的帮顶
回复 支持 反对

使用道具 举报

0

主题

1341

帖子

4025

积分

4K家园VIP

Rank: 9Rank: 9Rank: 9

积分
4025
发表于 2022-6-9 22:59:24 来自手机 | 显示全部楼层
好帖必须得顶起
回复 支持 反对

使用道具 举报

0

主题

1

帖子

10

积分

新手上路

Rank: 1

积分
10
发表于 2022-6-10 11:54:31 | 显示全部楼层
好东西,值得分享
回复 支持 反对

使用道具 举报

0

主题

3

帖子

12

积分

新手上路

Rank: 1

积分
12
发表于 2022-6-10 14:44:38 | 显示全部楼层
来看看4K的
回复 支持 反对

使用道具 举报

0

主题

78

帖子

624

积分

新手上路

Rank: 1

积分
624
发表于 2022-6-13 13:59:00 | 显示全部楼层

how to look young supplements

Why are you determined to help your clients achieve the body of their dreams and




RHzs43hgndIpuiSy
回复 支持 反对

使用道具 举报

您需要登录后才可以回帖 登录 | 立即注册

本版积分规则

精彩图文
Archiver|手机版|TAG|Sitemap|新帖|专题|联系我们:邮箱: 4kjia.com@gmail.com   

4k家园   ©2019