埃塞克斯之蛇 (内嵌中字) (2022)/ 第一季全6集/4K高清版本下载

[复制链接]

203

主题

226

帖子

2233

积分

版主

Rank: 7Rank: 7Rank: 7

积分
2233
 楼主| 发表于 2022-6-10 15:45:36 | 显示全部楼层 |阅读模式
本帖最后由 美剧小虾 于 2022-6-10 16:04 编辑

p2872112041_副本.png

◎译  名 埃塞克斯之蛇/埃塞克斯的蛇/雅息士之蛇(港)
◎片  名 The Essex Serpent
◎年  代 2022
◎产  地 英国
◎类  别 剧情
◎语  言 英语
◎上映日期 2022-05-13(英国)
◎IMDb评分  6.5/10 from 1757 users
◎IMDb链接  https://www.imdb.com/title/tt12976224/
◎豆瓣评分 7.1/10 from 530 users
◎豆瓣链接 https://douban.com/subject/35189726/
◎集  数 6
◎导  演 克里欧·巴纳德 Clio Barnard
◎编  剧 安娜·西蒙 Anna Symon /  Sarah Perry
◎主  演 克莱尔·丹妮丝 Claire Danes
       汤姆·希德勒斯顿 Tom Hiddleston
       弗兰克·迪兰 Frank Dillane
       克蕾曼丝·波西 Clémence Poésy
       海莉·斯奎尔斯 Hayley Squires
       迪克西·艾格瑞克斯 Dixie Egerickx
       迈克尔·吉普森 Michael Jibson
       葛蕾·贝拉玛西娜 Greta Bellamacina
       Lily-Rose Aslandogdu Lily-Rose Aslandogdu

◎简  介

  本剧改编自Sarah Perry的同名小说,讲述刚丧偶的Cora Seaborne(Claire Danes 饰),从伦敦搬去了埃塞克斯郡,调查关于一条神秘之蛇的传闻。Cora与村里的牧师Will Ransome(Tom Hiddleston 饰)建立起了意料之外的纽带,但当悲剧来临时,当地人指控她吸引了这种神秘生物。

Video
ID : 1
Format : HEVC
Format/Info : High Efficiency Video Coding
Format profile : Main 10@L5@High
HDR format : Dolby Vision, Version 1.0, dvhe.05.06, BL+RPU
Codec ID : V_MPEGH/ISO/HEVC
Duration : 50 min 55 s
Bit rate : 24.5 Mb/s
Width : 3 840 pixels
Height : 2 160 pixels
Display aspect ratio : 16:9
Frame rate mode : Constant
Frame rate : 23.976 (24000/1001) FPS
Color space : YUV
Chroma subsampling : 4:2:0
Bit depth : 10 bits
Bits/(Pixel*Frame) : 0.123
Stream size : 8.71 GiB (97%)
Default : Yes
Forced : No

Audio
ID : 2
Format : E-AC-3 JOC
Format/Info : Enhanced AC-3 with Joint Object Coding
Commercial name : Dolby Digital Plus with Dolby Atmos
Codec ID : A_EAC3
Duration : 50 min 55 s
Bit rate mode : Constant
Bit rate : 768 kb/s
Channel(s) : 6 channels
Channel layout : L R C LFE Ls Rs
Sampling rate : 48.0 kHz
Frame rate : 31.250 FPS (1536 SPF)
Compression mode : Lossy
Stream size : 280 MiB (3%)
Language : English
Service kind : Complete Main
Default : Yes
Forced : No
Complexity index : 16
Number of dynamic objects : 15
Bed channel count : 1 channel
Bed channel configuration : LFE

Text #1
ID : 3
Format : UTF-8
Codec ID : S_TEXT/UTF8
Codec ID/Info : UTF-8 Plain Text
Duration : 48 min 29 s
Bit rate : 29 b/s
Count of elements : 385
Stream size : 10.3 KiB (0%)
Language : English
Default : No
Forced : No

Text #2
ID : 4
Format : UTF-8
Codec ID : S_TEXT/UTF8
Codec ID/Info : UTF-8 Plain Text
Duration : 49 min 7 s
Bit rate : 33 b/s
Count of elements : 449
Stream size : 11.9 KiB (0%)
Title : SDH
Language : English
Default : No
Forced : No

Text #3
ID : 5
Format : UTF-8
Codec ID : S_TEXT/UTF8
Codec ID/Info : UTF-8 Plain Text
Duration : 50 min 10 s
Bit rate : 38 b/s
Count of elements : 390
Stream size : 14.1 KiB (0%)
Language : Arabic
Default : No
Forced : No

Text #4
ID : 6
Format : UTF-8
Codec ID : S_TEXT/UTF8
Codec ID/Info : UTF-8 Plain Text
Duration : 49 min 26 s
Bit rate : 44 b/s
Count of elements : 382
Stream size : 16.1 KiB (0%)
Language : Bulgarian
Default : No
Forced : No

Text #5
ID : 7
Format : UTF-8
Codec ID : S_TEXT/UTF8
Codec ID/Info : UTF-8 Plain Text
Duration : 50 min 10 s
Bit rate : 26 b/s
Count of elements : 393
Stream size : 9.82 KiB (0%)
Title : 中文(简体)
Language : 中文
Default : No
Forced : No

Text #6
ID : 8
Format : UTF-8
Codec ID : S_TEXT/UTF8
Codec ID/Info : UTF-8 Plain Text
Duration : 50 min 10 s
Bit rate : 26 b/s
Count of elements : 394
Stream size : 9.69 KiB (0%)
Title : 中文(繁体)
Language : 中午
Default : No
Forced : No


Text #7
ID : 9
Format : UTF-8
Codec ID : S_TEXT/UTF8
Codec ID/Info : UTF-8 Plain Text
Duration : 50 min 10 s
Bit rate : 28 b/s
Count of elements : 382
Stream size : 10.5 KiB (0%)
Language : Czech
Default : No
Forced : No

Text #8
ID : 10
Format : UTF-8
Codec ID : S_TEXT/UTF8
Codec ID/Info : UTF-8 Plain Text
Duration : 50 min 10 s
Bit rate : 30 b/s
Count of elements : 362
Stream size : 11.2 KiB (0%)
Language : Danish
Default : No
Forced : No

Text #9
ID : 11
Format : UTF-8
Codec ID : S_TEXT/UTF8
Codec ID/Info : UTF-8 Plain Text
Duration : 50 min 10 s
Bit rate : 34 b/s
Count of elements : 393
Stream size : 12.5 KiB (0%)
Language : German
Default : No
Forced : No

Text #10
ID : 12
Format : UTF-8
Codec ID : S_TEXT/UTF8
Codec ID/Info : UTF-8 Plain Text
Duration : 50 min 10 s
Bit rate : 49 b/s
Count of elements : 385
Stream size : 18.1 KiB (0%)
Language : Greek
Default : No
Forced : No

Text #11
ID : 13
Format : UTF-8
Codec ID : S_TEXT/UTF8
Codec ID/Info : UTF-8 Plain Text
Duration : 50 min 10 s
Bit rate : 29 b/s
Count of elements : 390
Stream size : 10.7 KiB (0%)
Title : Latin American
Language : Spanish
Default : No
Forced : No

Text #12
ID : 14
Format : UTF-8
Codec ID : S_TEXT/UTF8
Codec ID/Info : UTF-8 Plain Text
Duration : 50 min 10 s
Bit rate : 29 b/s
Count of elements : 393
Stream size : 11.0 KiB (0%)
Title : European
Language : Spanish
Default : No
Forced : No

Text #13
ID : 15
Format : UTF-8
Codec ID : S_TEXT/UTF8
Codec ID/Info : UTF-8 Plain Text
Duration : 50 min 10 s
Bit rate : 28 b/s
Count of elements : 380
Stream size : 10.4 KiB (0%)
Language : Estonian
Default : No
Forced : No

Text #14
ID : 16
Format : UTF-8
Codec ID : S_TEXT/UTF8
Codec ID/Info : UTF-8 Plain Text
Duration : 50 min 10 s
Bit rate : 28 b/s
Count of elements : 376
Stream size : 10.4 KiB (0%)
Language : Finnish
Default : No
Forced : No

Text #15
ID : 17
Format : UTF-8
Codec ID : S_TEXT/UTF8
Codec ID/Info : UTF-8 Plain Text
Duration : 49 min 26 s
Bit rate : 29 b/s
Count of elements : 394
Stream size : 10.6 KiB (0%)
Title : Canadian
Language : French
Default : No
Forced : No

Text #16
ID : 18
Format : UTF-8
Codec ID : S_TEXT/UTF8
Codec ID/Info : UTF-8 Plain Text
Duration : 49 min 26 s
Bit rate : 29 b/s
Count of elements : 393
Stream size : 10.6 KiB (0%)
Language : French
Default : No
Forced : No

Text #17
ID : 19
Format : UTF-8
Codec ID : S_TEXT/UTF8
Codec ID/Info : UTF-8 Plain Text
Duration : 50 min 10 s
Bit rate : 39 b/s
Count of elements : 393
Stream size : 14.4 KiB (0%)
Language : Hebrew
Default : No
Forced : No

Text #18
ID : 20
Format : UTF-8
Codec ID : S_TEXT/UTF8
Codec ID/Info : UTF-8 Plain Text
Duration : 50 min 10 s
Bit rate : 82 b/s
Count of elements : 394
Stream size : 30.2 KiB (0%)
Language : Hindi
Default : No
Forced : No

Text #19
ID : 21
Format : UTF-8
Codec ID : S_TEXT/UTF8
Codec ID/Info : UTF-8 Plain Text
Duration : 50 min 10 s
Bit rate : 29 b/s
Count of elements : 387
Stream size : 10.7 KiB (0%)
Language : Hungarian
Default : No
Forced : No

Text #20
ID : 22
Format : UTF-8
Codec ID : S_TEXT/UTF8
Codec ID/Info : UTF-8 Plain Text
Duration : 50 min 10 s
Bit rate : 30 b/s
Count of elements : 390
Stream size : 11.1 KiB (0%)
Language : Indonesian
Default : No
Forced : No

Text #21
ID : 23
Format : UTF-8
Codec ID : S_TEXT/UTF8
Codec ID/Info : UTF-8 Plain Text
Duration : 50 min 10 s
Bit rate : 30 b/s
Count of elements : 392
Stream size : 11.3 KiB (0%)
Language : Italian
Default : No
Forced : No

Text #22
ID : 24
Format : UTF-8
Codec ID : S_TEXT/UTF8
Codec ID/Info : UTF-8 Plain Text
Duration : 49 min 27 s
Bit rate : 27 b/s
Count of elements : 383
Stream size : 9.81 KiB (0%)
Language : Japanese
Default : No
Forced : No

Text #23
ID : 25
Format : UTF-8
Codec ID : S_TEXT/UTF8
Codec ID/Info : UTF-8 Plain Text
Duration : 50 min 10 s
Bit rate : 33 b/s
Count of elements : 394
Stream size : 12.3 KiB (0%)
Language : Korean
Default : No
Forced : No

Text #24
ID : 26
Format : UTF-8
Codec ID : S_TEXT/UTF8
Codec ID/Info : UTF-8 Plain Text
Duration : 50 min 10 s
Bit rate : 29 b/s
Count of elements : 392
Stream size : 10.7 KiB (0%)
Language : Lithuanian
Default : No
Forced : No

Text #25
ID : 27
Format : UTF-8
Codec ID : S_TEXT/UTF8
Codec ID/Info : UTF-8 Plain Text
Duration : 50 min 10 s
Bit rate : 29 b/s
Count of elements : 389
Stream size : 10.9 KiB (0%)
Language : Latvian
Default : No
Forced : No

Text #26
ID : 28
Format : UTF-8
Codec ID : S_TEXT/UTF8
Codec ID/Info : UTF-8 Plain Text
Duration : 50 min 10 s
Bit rate : 30 b/s
Count of elements : 390
Stream size : 11.3 KiB (0%)
Language : Malay
Default : No
Forced : No

Text #27
ID : 29
Format : UTF-8
Codec ID : S_TEXT/UTF8
Codec ID/Info : UTF-8 Plain Text
Duration : 49 min 26 s
Bit rate : 28 b/s
Count of elements : 334
Stream size : 10.2 KiB (0%)
Language : Dutch
Default : No
Forced : No

Text #28
ID : 30
Format : UTF-8
Codec ID : S_TEXT/UTF8
Codec ID/Info : UTF-8 Plain Text
Duration : 50 min 10 s
Bit rate : 28 b/s
Count of elements : 353
Stream size : 10.4 KiB (0%)
Language : Norwegian
Default : No
Forced : No

Text #29
ID : 31
Format : UTF-8
Codec ID : S_TEXT/UTF8
Codec ID/Info : UTF-8 Plain Text
Duration : 49 min 26 s
Bit rate : 28 b/s
Count of elements : 381
Stream size : 10.3 KiB (0%)
Language : Polish
Default : No
Forced : No

Text #30
ID : 32
Format : UTF-8
Codec ID : S_TEXT/UTF8
Codec ID/Info : UTF-8 Plain Text
Duration : 50 min 10 s
Bit rate : 27 b/s
Count of elements : 390
Stream size : 9.96 KiB (0%)
Title : Brazilian
Language : Portuguese
Default : No
Forced : No

Text #31
ID : 33
Format : UTF-8
Codec ID : S_TEXT/UTF8
Codec ID/Info : UTF-8 Plain Text
Duration : 50 min 10 s
Bit rate : 29 b/s
Count of elements : 391
Stream size : 10.9 KiB (0%)
Language : Portuguese
Default : No
Forced : No

Text #32
ID : 34
Format : UTF-8
Codec ID : S_TEXT/UTF8
Codec ID/Info : UTF-8 Plain Text
Duration : 50 min 10 s
Bit rate : 48 b/s
Count of elements : 393
Stream size : 17.9 KiB (0%)
Language : Russian
Default : No
Forced : No

Text #33
ID : 35
Format : UTF-8
Codec ID : S_TEXT/UTF8
Codec ID/Info : UTF-8 Plain Text
Duration : 50 min 10 s
Bit rate : 28 b/s
Count of elements : 389
Stream size : 10.4 KiB (0%)
Language : Slovak
Default : No
Forced : No

Text #34
ID : 36
Format : UTF-8
Codec ID : S_TEXT/UTF8
Codec ID/Info : UTF-8 Plain Text
Duration : 50 min 10 s
Bit rate : 25 b/s
Count of elements : 383
Stream size : 9.33 KiB (0%)
Language : Slovenian
Default : No
Forced : No

Text #35
ID : 37
Format : UTF-8
Codec ID : S_TEXT/UTF8
Codec ID/Info : UTF-8 Plain Text
Duration : 50 min 10 s
Bit rate : 30 b/s
Count of elements : 389
Stream size : 11.1 KiB (0%)
Language : Swedish
Default : No
Forced : No

Text #36
ID : 38
Format : UTF-8
Codec ID : S_TEXT/UTF8
Codec ID/Info : UTF-8 Plain Text
Duration : 50 min 10 s
Bit rate : 92 b/s
Count of elements : 393
Stream size : 33.9 KiB (0%)
Language : Tamil
Default : No
Forced : No

Text #37
ID : 39
Format : UTF-8
Codec ID : S_TEXT/UTF8
Codec ID/Info : UTF-8 Plain Text
Duration : 50 min 10 s
Bit rate : 90 b/s
Count of elements : 393
Stream size : 33.2 KiB (0%)
Language : Telugu
Default : No
Forced : No

Text #38
ID : 40
Format : UTF-8
Codec ID : S_TEXT/UTF8
Codec ID/Info : UTF-8 Plain Text
Duration : 50 min 10 s
Bit rate : 75 b/s
Count of elements : 393
Stream size : 27.8 KiB (0%)
Language : Thai
Default : No
Forced : No

Text #39
ID : 41
Format : UTF-8
Codec ID : S_TEXT/UTF8
Codec ID/Info : UTF-8 Plain Text
Duration : 50 min 10 s
Bit rate : 28 b/s
Count of elements : 390
Stream size : 10.6 KiB (0%)
Language : Turkish
Default : No
Forced : No

Text #40
ID : 42
Format : UTF-8
Codec ID : S_TEXT/UTF8
Codec ID/Info : UTF-8 Plain Text
Duration : 50 min 10 s
Bit rate : 43 b/s
Count of elements : 392
Stream size : 15.8 KiB (0%)
Language : Ukrainian
Default : No
Forced : No

Text #41
ID : 43
Format : UTF-8
Codec ID : S_TEXT/UTF8
Codec ID/Info : UTF-8 Plain Text
Duration : 50 min 10 s
Bit rate : 38 b/s
Count of elements : 392
Stream size : 14.0 KiB (0%)
Language : Vietnamese
Default : No
Forced : No

Text #42
ID : 44
Format : UTF-8
Codec ID : S_TEXT/UTF8
Codec ID/Info : UTF-8 Plain Text
Duration : 50 min 10 s
Bit rate : 26 b/s
Count of elements : 394
Stream size : 9.90 KiB (0%)
Title : 中文(粤语)
Language : 中午
Default : No
Forced : No

下载地址:

游客,如果您要查看本帖隐藏内容请回复

游客,如果您要查看本帖隐藏内容请回复

游客,如果您要查看本帖隐藏内容请回复

游客,如果您要查看本帖隐藏内容请回复






上一篇:比利小子 / Billy the Kid (2022)/ 第一季全8集 / 4K高清版本下载
下一篇:关于爱我所知道的一切 (2022)/ 第一季全7集/4K高清版本下载
回复

使用道具 举报

1

主题

1547

帖子

4489

积分

4K家园VIP

Rank: 9Rank: 9Rank: 9

积分
4489
发表于 2022-6-10 15:46:36 | 显示全部楼层
撸过
回复 支持 反对

使用道具 举报

3

主题

1481

帖子

4297

积分

4K家园VIP

Rank: 9Rank: 9Rank: 9

积分
4297
发表于 2022-6-10 15:52:46 | 显示全部楼层
发发呆,回回帖,工作结束~
回复 支持 反对

使用道具 举报

38

主题

1554

帖子

4442

积分

4K家园VIP

Rank: 9Rank: 9Rank: 9

积分
4442
发表于 2022-6-10 17:51:11 | 显示全部楼层
看起来好像不错的样子
回复 支持 反对

使用道具 举报

2

主题

1661

帖子

4525

积分

4K家园VIP

Rank: 9Rank: 9Rank: 9

积分
4525
发表于 2022-6-11 01:42:26 来自手机 | 显示全部楼层
回个帖子,下班咯~
回复 支持 反对

使用道具 举报

2

主题

1365

帖子

3963

积分

4K家园VIP

Rank: 9Rank: 9Rank: 9

积分
3963
发表于 2022-6-11 07:33:41 | 显示全部楼层
撸过
回复 支持 反对

使用道具 举报

0

主题

1

帖子

10

积分

新手上路

Rank: 1

积分
10
发表于 2022-6-14 22:43:28 | 显示全部楼层
感谢分析
回复

使用道具 举报

0

主题

2

帖子

33

积分

新手上路

Rank: 1

积分
33
发表于 2022-9-11 21:24:13 | 显示全部楼层
谢谢发资源
回复 支持 反对

使用道具 举报

您需要登录后才可以回帖 登录 | 立即注册

本版积分规则

精彩图文
Archiver|手机版|TAG|Sitemap|新帖|专题|联系我们:邮箱: 4kjia.com@gmail.com   

4k家园   ©2019