闪亮女孩 (简繁粤中字)(2022)/ 第一季全8集/4K高清版本下载

[复制链接]

154

主题

175

帖子

1746

积分

版主

Rank: 7Rank: 7Rank: 7

积分
1746
 楼主| 发表于 2022-6-10 16:55:52 | 显示全部楼层 |阅读模式

af478669acc798e6de68e2725c3e160f_副本.jpg

◎译  名 闪亮女孩 / 我会回来找你 / The Shining Girls
◎片  名 Shining Girls
◎年  代 2022
◎产  地 美国
◎类  别 剧情 / 科幻 / 悬疑 / 惊悚 / 犯罪
◎语  言 英语
◎上映日期 2022-04-29(美国)
◎IMDb评分  7.4/10 from 5818 users
◎IMDb链接  https://www.imdb.com/title/tt2953250/
◎豆瓣评分 8.7/10 from 10516 users
◎豆瓣链接 https://movie.douban.com/subject/25930137/
◎集  数 8
◎片  长 55分钟
◎导  演 伊丽莎白·莫斯 Elisabeth Moss / 米歇尔·麦克拉伦 Michelle MacLaren / 戴纳·里德 Daina Reid / 莫滕·泰杜姆 Morten Tyldum
◎编  剧 西尔卡·露易莎 Silka Luisa
◎演  员 伊丽莎白·莫斯 Elisabeth Moss
       瓦格纳·马拉 Wagner Moura
       菲莉帕·苏 Phillipa Soo
       杰米·贝尔 Jamie Bell
       艾米·布伦尼曼 Amy Brenneman
       克里斯托弗·邓汉 Christopher Denham
       迪安娜·里德-福斯特 Deanna Reed-Foster
       马克·格拉佩 Marc Grapey
       克里斯·乔克 Chris Chalk
       吉奥塔·特拉卡斯 Giota Trakas
       布赖恩·伯兰德 Brian Boland
       莱昂纳多·迪卡普里奥 Leonardo DiCaprio
       西尔卡·露易莎 Silka Luisa



◎简  介


  本剧改编自Lauren Beukes的畅销小说《The Shinning Girls》。故事讲述Kirby Mazrachi(Elisabeth Moss饰),一位芝加哥记者,她从一次残忍的袭击中幸存了下来,但在追寻这个袭击者时,她发现自己的现实发生了巨大的变化。在了解到近期一起凶案跟自己情况相似后,Kirby和麻烦不断的资深记者Dan Velazquez(Wagner Moura饰)组成搭档,一起查明袭击者的身份。两人逐渐发现这些悬案有所关联,但他们的私人创伤和Kirby自己模糊不清的现实,导致袭击者总是抢先一步。

Video
ID : 1
Format : HEVC
Format/Info : High Efficiency Video Coding
Format profile : Main 10@L5@High
HDR format : Dolby Vision, Version 1.0, dvhe.05.06, BL+RPU
Codec ID : V_MPEGH/ISO/HEVC
Duration : 59 min 41 s
Bit rate : 24.9 Mb/s
Width : 3 840 pixels
Height : 1 910 pixels
Display aspect ratio : 2.010
Frame rate mode : Constant
Frame rate : 23.976 (24000/1001) FPS
Color space : YUV
Chroma subsampling : 4:2:0
Bit depth : 10 bits
Bits/(Pixel*Frame) : 0.141
Stream size : 10.4 GiB (97%)
Default : Yes
Forced : No

Audio
ID : 2
Format : E-AC-3 JOC
Format/Info : Enhanced AC-3 with Joint Object Coding
Commercial name : Dolby Digital Plus with Dolby Atmos
Codec ID : A_EAC3
Duration : 59 min 41 s
Bit rate mode : Constant
Bit rate : 768 kb/s
Channel(s) : 6 channels
Channel layout : L R C LFE Ls Rs
Sampling rate : 48.0 kHz
Frame rate : 31.250 FPS (1536 SPF)
Compression mode : Lossy
Stream size : 328 MiB (3%)
Language : English
Service kind : Complete Main
Default : Yes
Forced : No
Complexity index : 16
Number of dynamic objects : 15
Bed channel count : 1 channel
Bed channel configuration : LFE

Text #1
ID : 3
Format : UTF-8
Codec ID : S_TEXT/UTF8
Codec ID/Info : UTF-8 Plain Text
Duration : 25 min 42 s
Bit rate : 1 b/s
Count of elements : 9
Stream size : 216 Bytes (0%)
Title : Forced
Language : English
Default : Yes
Forced : Yes

Text #2
ID : 4
Format : UTF-8
Codec ID : S_TEXT/UTF8
Codec ID/Info : UTF-8 Plain Text
Duration : 57 min 25 s
Bit rate : 45 b/s
Count of elements : 602
Stream size : 19.3 KiB (0%)
Language : English
Default : No
Forced : No

Text #3
ID : 5
Format : UTF-8
Codec ID : S_TEXT/UTF8
Codec ID/Info : UTF-8 Plain Text
Duration : 57 min 47 s
Bit rate : 51 b/s
Count of elements : 679
Stream size : 21.8 KiB (0%)
Title : SDH
Language : English
Default : No
Forced : No

Text #4
ID : 6
Format : UTF-8
Codec ID : S_TEXT/UTF8
Codec ID/Info : UTF-8 Plain Text
Duration : 58 min 58 s
Bit rate : 67 b/s
Count of elements : 634
Stream size : 29.1 KiB (0%)
Language : Arabic
Default : No
Forced : No

Text #5
ID : 7
Format : UTF-8
Codec ID : S_TEXT/UTF8
Codec ID/Info : UTF-8 Plain Text
Duration : 58 min 58 s
Bit rate : 65 b/s
Count of elements : 596
Stream size : 28.3 KiB (0%)
Language : Bulgarian
Default : No
Forced : No

Text #6
ID : 8
Format : UTF-8
Codec ID : S_TEXT/UTF8
Codec ID/Info : UTF-8 Plain Text
Duration : 58 min 58 s
Bit rate : 43 b/s
Count of elements : 634
Stream size : 18.8 KiB (0%)
Title : 中文(简体)
Language : 中文
Default : No
Forced : No

Text #7
ID : 9
Format : UTF-8
Codec ID : S_TEXT/UTF8
Codec ID/Info : UTF-8 Plain Text
Duration : 58 min 58 s
Bit rate : 45 b/s
Count of elements : 635
Stream size : 19.5 KiB (0%)
Title : 中文(繁体)
Language : 中文
Default : No
Forced : No


Text #8
ID : 10
Format : UTF-8
Codec ID : S_TEXT/UTF8
Codec ID/Info : UTF-8 Plain Text
Duration : 58 min 58 s
Bit rate : 40 b/s
Count of elements : 600
Stream size : 17.4 KiB (0%)
Language : Czech
Default : No
Forced : No

Text #9
ID : 11
Format : UTF-8
Codec ID : S_TEXT/UTF8
Codec ID/Info : UTF-8 Plain Text
Duration : 58 min 58 s
Bit rate : 42 b/s
Count of elements : 458
Stream size : 18.5 KiB (0%)
Language : Danish
Default : No
Forced : No

Text #10
ID : 12
Format : UTF-8
Codec ID : S_TEXT/UTF8
Codec ID/Info : UTF-8 Plain Text
Duration : 59 min 4 s
Bit rate : 49 b/s
Count of elements : 618
Stream size : 21.6 KiB (0%)
Language : German
Default : No
Forced : No

Text #11
ID : 13
Format : UTF-8
Codec ID : S_TEXT/UTF8
Codec ID/Info : UTF-8 Plain Text
Duration : 58 min 58 s
Bit rate : 74 b/s
Count of elements : 587
Stream size : 32.0 KiB (0%)
Language : Greek
Default : No
Forced : No

Text #12
ID : 14
Format : UTF-8
Codec ID : S_TEXT/UTF8
Codec ID/Info : UTF-8 Plain Text
Duration : 58 min 58 s
Bit rate : 44 b/s
Count of elements : 620
Stream size : 19.2 KiB (0%)
Title : Latin American
Language : Spanish
Default : No
Forced : No

Text #13
ID : 15
Format : UTF-8
Codec ID : S_TEXT/UTF8
Codec ID/Info : UTF-8 Plain Text
Duration : 59 min 4 s
Bit rate : 45 b/s
Count of elements : 617
Stream size : 19.8 KiB (0%)
Title : European
Language : Spanish
Default : No
Forced : No

Text #14
ID : 16
Format : UTF-8
Codec ID : S_TEXT/UTF8
Codec ID/Info : UTF-8 Plain Text
Duration : 58 min 58 s
Bit rate : 42 b/s
Count of elements : 595
Stream size : 18.3 KiB (0%)
Language : Estonian
Default : No
Forced : No

Text #15
ID : 17
Format : UTF-8
Codec ID : S_TEXT/UTF8
Codec ID/Info : UTF-8 Plain Text
Duration : 58 min 58 s
Bit rate : 41 b/s
Count of elements : 581
Stream size : 17.9 KiB (0%)
Language : Finnish
Default : No
Forced : No

Text #16
ID : 18
Format : UTF-8
Codec ID : S_TEXT/UTF8
Codec ID/Info : UTF-8 Plain Text
Duration : 58 min 58 s
Bit rate : 40 b/s
Count of elements : 601
Stream size : 17.3 KiB (0%)
Title : Canadian
Language : French
Default : No
Forced : No

Text #17
ID : 19
Format : UTF-8
Codec ID : S_TEXT/UTF8
Codec ID/Info : UTF-8 Plain Text
Duration : 58 min 58 s
Bit rate : 40 b/s
Count of elements : 600
Stream size : 17.3 KiB (0%)
Language : French
Default : No
Forced : No

Text #18
ID : 20
Format : UTF-8
Codec ID : S_TEXT/UTF8
Codec ID/Info : UTF-8 Plain Text
Duration : 58 min 58 s
Bit rate : 61 b/s
Count of elements : 633
Stream size : 26.5 KiB (0%)
Language : Hebrew
Default : No
Forced : No

Text #19
ID : 21
Format : UTF-8
Codec ID : S_TEXT/UTF8
Codec ID/Info : UTF-8 Plain Text
Duration : 58 min 58 s
Bit rate : 125 b/s
Count of elements : 635
Stream size : 54.2 KiB (0%)
Language : Hindi
Default : No
Forced : No

Text #20
ID : 22
Format : UTF-8
Codec ID : S_TEXT/UTF8
Codec ID/Info : UTF-8 Plain Text
Duration : 58 min 58 s
Bit rate : 40 b/s
Count of elements : 621
Stream size : 17.5 KiB (0%)
Language : Hungarian
Default : No
Forced : No

Text #21
ID : 23
Format : UTF-8
Codec ID : S_TEXT/UTF8
Codec ID/Info : UTF-8 Plain Text
Duration : 58 min 58 s
Bit rate : 47 b/s
Count of elements : 620
Stream size : 20.5 KiB (0%)
Language : Indonesian
Default : No
Forced : No

Text #22
ID : 24
Format : UTF-8
Codec ID : S_TEXT/UTF8
Codec ID/Info : UTF-8 Plain Text
Duration : 59 min 4 s
Bit rate : 45 b/s
Count of elements : 613
Stream size : 19.8 KiB (0%)
Language : Italian
Default : No
Forced : No

Text #23
ID : 25
Format : UTF-8
Codec ID : S_TEXT/UTF8
Codec ID/Info : UTF-8 Plain Text
Duration : 59 min 4 s
Bit rate : 37 b/s
Count of elements : 588
Stream size : 16.1 KiB (0%)
Language : Japanese
Default : No
Forced : No

Text #24
ID : 26
Format : UTF-8
Codec ID : S_TEXT/UTF8
Codec ID/Info : UTF-8 Plain Text
Duration : 58 min 58 s
Bit rate : 50 b/s
Count of elements : 652
Stream size : 21.8 KiB (0%)
Language : Korean
Default : No
Forced : No

Text #25
ID : 27
Format : UTF-8
Codec ID : S_TEXT/UTF8
Codec ID/Info : UTF-8 Plain Text
Duration : 58 min 58 s
Bit rate : 45 b/s
Count of elements : 630
Stream size : 19.7 KiB (0%)
Language : Lithuanian
Default : No
Forced : No

Text #26
ID : 28
Format : UTF-8
Codec ID : S_TEXT/UTF8
Codec ID/Info : UTF-8 Plain Text
Duration : 58 min 58 s
Bit rate : 47 b/s
Count of elements : 626
Stream size : 20.5 KiB (0%)
Language : Latvian
Default : No
Forced : No

Text #27
ID : 29
Format : UTF-8
Codec ID : S_TEXT/UTF8
Codec ID/Info : UTF-8 Plain Text
Duration : 58 min 58 s
Bit rate : 47 b/s
Count of elements : 625
Stream size : 20.4 KiB (0%)
Language : Malay
Default : No
Forced : No

Text #28
ID : 30
Format : UTF-8
Codec ID : S_TEXT/UTF8
Codec ID/Info : UTF-8 Plain Text
Duration : 57 min 39 s
Bit rate : 42 b/s
Count of elements : 516
Stream size : 17.9 KiB (0%)
Language : Dutch
Default : No
Forced : No

Text #29
ID : 31
Format : UTF-8
Codec ID : S_TEXT/UTF8
Codec ID/Info : UTF-8 Plain Text
Duration : 58 min 58 s
Bit rate : 43 b/s
Count of elements : 511
Stream size : 18.6 KiB (0%)
Language : Norwegian
Default : No
Forced : No

Text #30
ID : 32
Format : UTF-8
Codec ID : S_TEXT/UTF8
Codec ID/Info : UTF-8 Plain Text
Duration : 58 min 58 s
Bit rate : 40 b/s
Count of elements : 571
Stream size : 17.7 KiB (0%)
Language : Polish
Default : No
Forced : No

Text #31
ID : 33
Format : UTF-8
Codec ID : S_TEXT/UTF8
Codec ID/Info : UTF-8 Plain Text
Duration : 58 min 58 s
Bit rate : 40 b/s
Count of elements : 605
Stream size : 17.6 KiB (0%)
Title : Brazilian
Language : Portuguese
Default : No
Forced : No

Text #32
ID : 34
Format : UTF-8
Codec ID : S_TEXT/UTF8
Codec ID/Info : UTF-8 Plain Text
Duration : 58 min 58 s
Bit rate : 45 b/s
Count of elements : 607
Stream size : 19.7 KiB (0%)
Language : Portuguese
Default : No
Forced : No

Text #33
ID : 35
Format : UTF-8
Codec ID : S_TEXT/UTF8
Codec ID/Info : UTF-8 Plain Text
Duration : 59 min 4 s
Bit rate : 65 b/s
Count of elements : 635
Stream size : 28.5 KiB (0%)
Language : Russian
Default : No
Forced : No

Text #34
ID : 36
Format : UTF-8
Codec ID : S_TEXT/UTF8
Codec ID/Info : UTF-8 Plain Text
Duration : 58 min 58 s
Bit rate : 40 b/s
Count of elements : 612
Stream size : 17.6 KiB (0%)
Language : Slovak
Default : No
Forced : No

Text #35
ID : 37
Format : UTF-8
Codec ID : S_TEXT/UTF8
Codec ID/Info : UTF-8 Plain Text
Duration : 58 min 58 s
Bit rate : 36 b/s
Count of elements : 622
Stream size : 15.6 KiB (0%)
Language : Slovenian
Default : No
Forced : No

Text #36
ID : 38
Format : UTF-8
Codec ID : S_TEXT/UTF8
Codec ID/Info : UTF-8 Plain Text
Duration : 58 min 58 s
Bit rate : 45 b/s
Count of elements : 594
Stream size : 19.7 KiB (0%)
Language : Swedish
Default : No
Forced : No

Text #37
ID : 39
Format : UTF-8
Codec ID : S_TEXT/UTF8
Codec ID/Info : UTF-8 Plain Text
Duration : 58 min 58 s
Bit rate : 149 b/s
Count of elements : 634
Stream size : 64.5 KiB (0%)
Language : Tamil
Default : No
Forced : No

Text #38
ID : 40
Format : UTF-8
Codec ID : S_TEXT/UTF8
Codec ID/Info : UTF-8 Plain Text
Duration : 58 min 58 s
Bit rate : 134 b/s
Count of elements : 634
Stream size : 58.2 KiB (0%)
Language : Telugu
Default : No
Forced : No

Text #39
ID : 41
Format : UTF-8
Codec ID : S_TEXT/UTF8
Codec ID/Info : UTF-8 Plain Text
Duration : 58 min 58 s
Bit rate : 115 b/s
Count of elements : 634
Stream size : 50.0 KiB (0%)
Language : Thai
Default : No
Forced : No

Text #40
ID : 42
Format : UTF-8
Codec ID : S_TEXT/UTF8
Codec ID/Info : UTF-8 Plain Text
Duration : 58 min 58 s
Bit rate : 44 b/s
Count of elements : 611
Stream size : 19.3 KiB (0%)
Language : Turkish
Default : No
Forced : No

Text #41
ID : 43
Format : UTF-8
Codec ID : S_TEXT/UTF8
Codec ID/Info : UTF-8 Plain Text
Duration : 58 min 58 s
Bit rate : 73 b/s
Count of elements : 632
Stream size : 31.6 KiB (0%)
Language : Ukrainian
Default : No
Forced : No

Text #42
ID : 44
Format : UTF-8
Codec ID : S_TEXT/UTF8
Codec ID/Info : UTF-8 Plain Text
Duration : 58 min 58 s
Bit rate : 61 b/s
Count of elements : 620
Stream size : 26.6 KiB (0%)
Language : Vietnamese
Default : No
Forced : No

Text #43
ID : 45
Format : UTF-8
Codec ID : S_TEXT/UTF8
Codec ID/Info : UTF-8 Plain Text
Duration : 58 min 58 s
Bit rate : 43 b/s
Count of elements : 635
Stream size : 18.9 KiB (0%)
Title : 中文(粤语)
Language : 中文
Default : No
Forced : No


下载地址:

游客,如果您要查看本帖隐藏内容请回复

游客,如果您要查看本帖隐藏内容请回复

游客,如果您要查看本帖隐藏内容请回复

游客,如果您要查看本帖隐藏内容请回复






上一篇:关于爱我所知道的一切 (2022)/ 第一季全7集/4K高清版本下载
下一篇:可爱的小农场 (2022) / 第一季全7集/4K高清版本下载
回复

使用道具 举报

52

主题

1532

帖子

4418

积分

4K家园VIP

Rank: 9Rank: 9Rank: 9

积分
4418
发表于 2022-6-10 16:56:01 | 显示全部楼层
发发呆,回回帖,工作结束~
回复 支持 反对

使用道具 举报

0

主题

1359

帖子

4091

积分

4K家园VIP

Rank: 9Rank: 9Rank: 9

积分
4091
发表于 2022-6-10 17:17:53 | 显示全部楼层
珍爱生命,果断回帖。
回复 支持 反对

使用道具 举报

40

主题

1547

帖子

4431

积分

4K家园VIP

Rank: 9Rank: 9Rank: 9

积分
4431
发表于 2022-6-11 23:53:20 | 显示全部楼层
回复 支持 反对

使用道具 举报

0

主题

4

帖子

24

积分

新手上路

Rank: 1

积分
24
发表于 2022-6-12 12:52:53 | 显示全部楼层
谢谢楼主分享
回复 支持 反对

使用道具 举报

1

主题

1544

帖子

4480

积分

4K家园VIP

Rank: 9Rank: 9Rank: 9

积分
4480
发表于 2022-6-12 17:13:52 | 显示全部楼层
边撸边过
回复 支持 反对

使用道具 举报

201

主题

1743

帖子

4791

积分

4K家园VIP

Rank: 9Rank: 9Rank: 9

积分
4791
发表于 2022-6-12 22:22:15 | 显示全部楼层
沙发???
回复 支持 反对

使用道具 举报

您需要登录后才可以回帖 登录 | 立即注册

本版积分规则

精彩图文
Archiver|手机版|TAG|Sitemap|新帖|专题|联系我们:邮箱: 4kjia.com@gmail.com   

4k家园   ©2019