可爱的小农场 (2022) / 第一季全7集/4K高清版本下载

[复制链接]

154

主题

175

帖子

1746

积分

版主

Rank: 7Rank: 7Rank: 7

积分
1746
 楼主| 发表于 2022-6-12 18:05:53 | 显示全部楼层 |阅读模式
p2873125950_副本.jpg

◎译  名 可爱的小农场
◎片  名 Lovely Little Farm
◎年  代 2022
◎产  地 英国
◎类  别 剧情
◎语  言 英语
◎上映日期 2022-06-10(英国)
◎IMDb评分  7.1/10 from 15 users
◎IMDb链接  https://www.imdb.com/title/tt20218952/
◎豆瓣评分 0/10 from 0 users
◎豆瓣链接 https://movie.douban.com/subject/35898683/
◎导  演 杰克·詹姆斯昂 Jack Jameson
◎编  剧 托尼·库克 Tony Cooke / 麦迪·达拉尔 Maddy Darrall / 比利·麦奎因 Billy Macqueen / 凯瑟琳·威廉姆斯 Catherine Williams
◎演  员 雪莉·亨德森 Shirley Henderson
       乔尔·弗莱 Joel Fry
       多米妮克·摩尔 Dominique Moore
       伊登·高夫 Eden Gough
                   尼克·凯灵顿 Nick Kellington
                   巴里·麦卡锡 Barry McCarthy
                   迈卡·巴尔福 Micah Balfour
                   西西里·吉丁斯 Cicely Giddings
                   利维·霍登 Levi Howden
                   杰里米·克雷格 Jeremiah Krage
                   卡西迪·罗伯茨 Kassidi Roberts
                   卢卡斯·特朗 Lucas Tran


◎简  介

  坐落在薰衣草地里的是一个可爱的小农场,吉尔姐妹和杰基姐妹在这里养育和爱护他们所有的动物,包括会说话的动物。做一个年轻的农民并不容易,但每天都会带来冒险和成长的机会。6月10日在苹果电视上播放《可爱的小农场》+

Video
ID : 1
Format : HEVC
Format/Info : High Efficiency Video Coding
Format profile : Main 10@L5@High
Codec ID : V_MPEGH/ISO/HEVC
Duration : 27 min 1 s
Bit rate : 20.5 Mb/s
Width : 3 840 pixels
Height : 1 920 pixels
Display aspect ratio : 2.000
Frame rate mode : Constant
Frame rate : 23.976 (24000/1001) FPS
Color space : YUV
Chroma subsampling : 4:2:0
Bit depth : 10 bits
Bits/(Pixel*Frame) : 0.116
Stream size : 3.88 GiB (96%)
Language : English
Default : Yes
Forced : No
Color range : Limited
Color primaries : BT.709
Transfer characteristics : BT.709
Matrix coefficients : BT.709

Audio
ID : 2
Format : E-AC-3 JOC
Format/Info : Enhanced AC-3 with Joint Object Coding
Commercial name : Dolby Digital Plus with Dolby Atmos
Codec ID : A_EAC3
Duration : 27 min 1 s
Bit rate mode : Constant
Bit rate : 768 kb/s
Channel(s) : 6 channels
Channel layout : L R C LFE Ls Rs
Sampling rate : 48.0 kHz
Frame rate : 31.250 FPS (1536 SPF)
Compression mode : Lossy
Stream size : 148 MiB (4%)
Language : English
Service kind : Complete Main
Default : Yes
Forced : No
Complexity index : 16
Number of dynamic objects : 15
Bed channel count : 1 channel
Bed channel configuration : LFE

Text #1
ID : 3
Format : UTF-8
Codec ID : S_TEXT/UTF8
Codec ID/Info : UTF-8 Plain Text
Duration : 26 min 20 s
Bit rate : 50 b/s
Count of elements : 396
Stream size : 9.77 KiB (0%)
Title : English
Language : English
Default : No
Forced : No

Text #2
ID : 4
Format : UTF-8
Codec ID : S_TEXT/UTF8
Codec ID/Info : UTF-8 Plain Text
Duration : 26 min 22 s
Bit rate : 66 b/s
Count of elements : 498
Stream size : 12.9 KiB (0%)
Title : English (SDH)
Language : English
Default : No
Forced : No


下载地址:

游客,如果您要查看本帖隐藏内容请回复

游客,如果您要查看本帖隐藏内容请回复

游客,如果您要查看本帖隐藏内容请回复

游客,如果您要查看本帖隐藏内容请回复






上一篇:闪亮女孩 (简繁粤中字)(2022)/ 第一季全8集/4K高清版本下载
下一篇:爱芯 / Made For Love (2021) / 第一季全8集/4K高清版本下载
回复

使用道具 举报

3

主题

1389

帖子

3999

积分

4K家园VIP

Rank: 9Rank: 9Rank: 9

积分
3999
发表于 2022-6-12 18:06:53 | 显示全部楼层
我也是坐沙发的
回复 支持 反对

使用道具 举报

0

主题

2

帖子

13

积分

新手上路

Rank: 1

积分
13
发表于 2022-6-13 15:49:12 | 显示全部楼层
wedwaokdjasoihd
回复 支持 反对

使用道具 举报

48

主题

1528

帖子

4456

积分

4K家园VIP

Rank: 9Rank: 9Rank: 9

积分
4456
发表于 2022-6-15 02:26:52 | 显示全部楼层
顶顶更健康
回复 支持 反对

使用道具 举报

0

主题

1458

帖子

4188

积分

4K家园VIP

Rank: 9Rank: 9Rank: 9

积分
4188
发表于 2022-6-16 09:50:20 | 显示全部楼层
小白一个 顶一下
回复 支持 反对

使用道具 举报

3

主题

1316

帖子

3754

积分

4K家园VIP

Rank: 9Rank: 9Rank: 9

积分
3754
发表于 2022-6-17 22:34:36 | 显示全部楼层
正需要
回复 支持 反对

使用道具 举报

14

主题

1241

帖子

3713

积分

4K家园VIP

Rank: 9Rank: 9Rank: 9

积分
3713
发表于 2022-6-19 04:19:38 | 显示全部楼层
向楼主学习
回复 支持 反对

使用道具 举报

您需要登录后才可以回帖 登录 | 立即注册

本版积分规则

精彩图文
Archiver|手机版|TAG|Sitemap|新帖|专题|联系我们:邮箱: 4kjia.com@gmail.com   

4k家园   ©2019