[4K电影] 飞向宇宙:巴斯的浩瀚无垠之旅(简繁粤)(2021)4K高清版本下载

[复制链接]

1868

主题

2007

帖子

1万

积分

超级版主

Rank: 8Rank: 8

积分
15027
 楼主| 发表于 2022-6-12 20:20:14 | 显示全部楼层 |阅读模式
QQ图片20220612201535_副本.png

◎译  名 飞向宇宙:巴斯的浩瀚无垠之旅
◎片  名 Beyond Infinity: Buzz and the Journey to Lightyear
◎年  代 2022
◎产  地 美国
◎类  别 纪录片 / 短片
◎语  言 英语 / 西班牙语
◎上映日期 2022-06-10(美国网络)
◎IMDb评分  6.5/10 from 75 users
◎IMDb链接 https://www.imdb.com/title/tt16026684/
◎豆瓣评分 0/10 from 0 users
◎豆瓣链接 https://movie.douban.com/subject/35926861/
◎片  长 35分钟
◎导  演 托尼·卡普兰 Tony Kaplan
◎主  演 约翰·拉塞特 John Lasseter
                   皮特·道科特 Pete Docter
                   李昂·克里奇 Lee Unkrich
                   杰森·赫德利 Jason Headley
                   安东尼·格林伯格 Anthony Greenberg
                   玛格丽特·艾希勒 Margrit Eichler
                   格兰特·亚历山大  Grant Alexander
                   鲍勃·保利 Bob Pauley
                   迪安·凯利 Dean Kelly
                   特拉维斯·海瑟薇 Travis Hathaway
                   马特·诺尔特 Matt Nolte
                   迪安·希岑 Dean Heezen
                   保利阿拉姆 Paulie Alam
                   蒂姆·梅茨格 Tim Metzger
                   米莉·伊扎克 Milly Itzhak
                   杰森·约瑟夫 Jason Joseffer
                   莎拉·邓纳姆 Sarah Dunham
                   苏雷娜·曼恩 Sureena Mann
                   约翰·特劳什特 John Trauscht
                   加林·苏斯曼 Galyn Susman




◎简  介

  一部关于虚构人物巴斯光年和电影光年 (2022) 制作的纪录片

Video
ID : 1
Format : HEVC
Format/Info : High Efficiency Video Coding
Format profile : Main@L5@High
Codec ID : V_MPEGH/ISO/HEVC
Duration : 34 min 11 s
Bit rate : 19.3 Mb/s
Width : 3 840 pixels
Height : 2 160 pixels
Display aspect ratio : 16:9
Frame rate mode : Constant
Frame rate : 23.976 (24000/1001) FPS
Color space : YUV
Chroma subsampling : 4:2:0
Bit depth : 8 bits
Bits/(Pixel*Frame) : 0.097
Stream size : 4.61 GiB (99%)
Writing library : x265 3.5:[Linux][GCC 9.4.0][64 bit] 8bit+10bit+12bit
Encoding settings : cpuid=1111039 / frame-threads=1 / numa-pools=16 / wpp / no-pmode / no-pme / no-psnr / no-ssim / log-level=2 / input-csp=1 / input-res=3840x2160 / interlace=0 / total-frames=0 / level-idc=50 / high-tier=1 / uhd-bd=0 / ref=2 / no-allow-non-conformance / repeat-headers / annexb / no-aud / no-hrd / info / hash=0 / no-temporal-layers / no-open-gop / min-keyint=48 / keyint=48 / gop-lookahead=0 / bframes=4 / b-adapt=0 / b-pyramid / bframe-bias=0 / rc-lookahead=48 / lookahead-slices=8 / scenecut=0 / hist-scenecut=0 / radl=0 / no-splice / no-intra-refresh / ctu=32 / min-cu-size=8 / no-rect / no-amp / max-tu-size=16 / tu-inter-depth=2 / tu-intra-depth=2 / limit-tu=0 / rdoq-level=1 / dynamic-rd=0.00 / no-ssim-rd / signhide / no-tskip / nr-intra=0 / nr-inter=0 / no-constrained-intra / no-strong-intra-smoothing / max-merge=3 / limit-refs=1 / no-limit-modes / me=1 / subme=2 / merange=44 / temporal-mvp / no-frame-dup / no-hme / weightp / no-weightb / no-analyze-src-pics / deblock=0:0 / no-sao / no-sao-non-deblock / rd=4 / selective-sao=0 / early-skip / rskip / no-fast-intra / no-tskip-fast / no-cu-lossless / b-intra / no-splitrd-skip / rdpenalty=1 / psy-rd=1.60 / psy-rdoq=5.00 / no-rd-refine / no-lossless / cbqpoffs=0 / crqpoffs=0 / rc=abr / bitrate=20000 / qcomp=0.75 / qpstep=4 / stats-write=0 / stats-read=0 / vbv-maxrate=24000 / vbv-bufsize=40000 / vbv-init=0.9 / ipratio=1.40 / pbratio=1.30 / aq-mode=3 / aq-strength=1.00 / no-cutree / zone-count=0 / no-strict-cbr / qg-size=32 / no-rc-grain / qpmax=69 / qpmin=0 / no-const-vbv / sar=1 / overscan=0 / videoformat=5 / range=0 / colorprim=1 / transfer=1 / colormatrix=1 / chromaloc=0 / display-window=0 / cll=0,0 / min-luma=0 / max-luma=255 / log2-max-poc-lsb=8 / vui-timing-info / vui-hrd-info / slices=1 / no-opt-qp-pps / no-opt-ref-list-length-pps / no-multi-pass-opt-rps / scenecut-bias=0.00 / hist-threshold=0.01 / no-opt-cu-delta-qp / no-aq-motion / no-hdr10 / no-hdr10-opt / no-dhdr10-opt / no-idr-recovery-sei / analysis-reuse-level=0 / analysis-save-reuse-level=0 / analysis-load-reuse-level=0 / scale-factor=0 / refine-intra=0 / refine-inter=0 / refine-mv=1 / refine-ctu-distortion=0 / no-limit-sao / ctu-info=0 / no-lowpass-dct / refine-analysis-type=0 / copy-pic=1 / max-ausize-factor=1.0 / no-dynamic-refine / no-single-sei / no-hevc-aq / no-svt / no-field / qp-adaptation-range=1.00 / no-scenecut-aware-qpconformance-window-offsets / right=0 / bottom=0
Default : No
Forced : No
Color range : Limited
Color primaries : BT.709
Transfer characteristics : BT.709
Matrix coefficients : BT.709

Audio
ID : 2
Format : E-AC-3
Format/Info : Enhanced AC-3
Commercial name : Dolby Digital Plus
Codec ID : A_EAC3
Duration : 34 min 12 s
Bit rate mode : Constant
Bit rate : 256 kb/s
Channel(s) : 6 channels
Channel layout : L R C LFE Ls Rs
Sampling rate : 48.0 kHz
Frame rate : 31.250 FPS (1536 SPF)
Compression mode : Lossy
Stream size : 62.6 MiB (1%)
Language : English
Service kind : Complete Main
Default : No
Forced : No

Text #1
ID : 3
Format : UTF-8
Codec ID : S_TEXT/UTF8
Codec ID/Info : UTF-8 Plain Text
Duration : 34 min 4 s
Bit rate : 111 b/s
Count of elements : 582
Stream size : 27.7 KiB (0%)
Language : English
Default : No
Forced : No

Text #2
ID : 4
Format : UTF-8
Codec ID : S_TEXT/UTF8
Codec ID/Info : UTF-8 Plain Text
Duration : 34 min 4 s
Bit rate : 113 b/s
Count of elements : 588
Stream size : 28.4 KiB (0%)
Title : SDH
Language : English
Default : No
Forced : No

Text #3
ID : 5
Format : UTF-8
Codec ID : S_TEXT/UTF8
Codec ID/Info : UTF-8 Plain Text
Duration : 34 min 6 s
Bit rate : 94 b/s
Count of elements : 658
Stream size : 23.5 KiB (0%)
Title : 中文(粤语)
Language : 中文
Default : No
Forced : No

Text #4
ID : 6
Format : UTF-8
Codec ID : S_TEXT/UTF8
Codec ID/Info : UTF-8 Plain Text
Duration : 34 min 6 s
Bit rate : 96 b/s
Count of elements : 657
Stream size : 24.2 KiB (0%)
Title : 中文(简体)
Language : 中文
Default : No
Forced : No

Text #5
ID : 7
Format : UTF-8
Codec ID : S_TEXT/UTF8
Codec ID/Info : UTF-8 Plain Text
Duration : 34 min 6 s
Bit rate : 80 b/s
Count of elements : 582
Stream size : 20.2 KiB (0%)
Title : 中文(繁体)
Language : 中文
Default : No
Forced : No


Text #6
ID : 8
Format : UTF-8
Codec ID : S_TEXT/UTF8
Codec ID/Info : UTF-8 Plain Text
Duration : 34 min 6 s
Bit rate : 111 b/s
Count of elements : 627
Stream size : 27.9 KiB (0%)
Language : Danish
Default : No
Forced : No

Text #7
ID : 9
Format : UTF-8
Codec ID : S_TEXT/UTF8
Codec ID/Info : UTF-8 Plain Text
Duration : 34 min 6 s
Bit rate : 102 b/s
Count of elements : 592
Stream size : 25.7 KiB (0%)
Language : German
Default : No
Forced : No

Text #8
ID : 10
Format : UTF-8
Codec ID : S_TEXT/UTF8
Codec ID/Info : UTF-8 Plain Text
Duration : 34 min 6 s
Bit rate : 120 b/s
Count of elements : 637
Stream size : 30.1 KiB (0%)
Title : Latin American
Language : Spanish
Default : No
Forced : No

Text #9
ID : 11
Format : UTF-8
Codec ID : S_TEXT/UTF8
Codec ID/Info : UTF-8 Plain Text
Duration : 34 min 6 s
Bit rate : 114 b/s
Count of elements : 633
Stream size : 28.5 KiB (0%)
Title : European
Language : Spanish
Default : No
Forced : No

Text #10
ID : 12
Format : UTF-8
Codec ID : S_TEXT/UTF8
Codec ID/Info : UTF-8 Plain Text
Duration : 34 min 6 s
Bit rate : 93 b/s
Count of elements : 619
Stream size : 23.5 KiB (0%)
Language : French
Default : No
Forced : No

Text #11
ID : 13
Format : UTF-8
Codec ID : S_TEXT/UTF8
Codec ID/Info : UTF-8 Plain Text
Duration : 34 min 6 s
Bit rate : 190 b/s
Count of elements : 642
Stream size : 47.6 KiB (0%)
Language : Greek
Default : No
Forced : No

Text #12
ID : 14
Format : UTF-8
Codec ID : S_TEXT/UTF8
Codec ID/Info : UTF-8 Plain Text
Duration : 34 min 6 s
Bit rate : 108 b/s
Count of elements : 639
Stream size : 27.1 KiB (0%)
Language : Italian
Default : No
Forced : No

Text #13
ID : 15
Format : UTF-8
Codec ID : S_TEXT/UTF8
Codec ID/Info : UTF-8 Plain Text
Duration : 34 min 6 s
Bit rate : 107 b/s
Count of elements : 553
Stream size : 27.0 KiB (0%)
Language : Japanese
Default : No
Forced : No

Text #14
ID : 16
Format : UTF-8
Codec ID : S_TEXT/UTF8
Codec ID/Info : UTF-8 Plain Text
Duration : 34 min 6 s
Bit rate : 115 b/s
Count of elements : 647
Stream size : 28.8 KiB (0%)
Language : Korean
Default : No
Forced : No

Text #15
ID : 17
Format : UTF-8
Codec ID : S_TEXT/UTF8
Codec ID/Info : UTF-8 Plain Text
Duration : 34 min 4 s
Bit rate : 108 b/s
Count of elements : 642
Stream size : 27.1 KiB (0%)
Language : Hungarian
Default : No
Forced : No

Text #16
ID : 18
Format : UTF-8
Codec ID : S_TEXT/UTF8
Codec ID/Info : UTF-8 Plain Text
Duration : 34 min 6 s
Bit rate : 82 b/s
Count of elements : 516
Stream size : 20.7 KiB (0%)
Language : Dutch
Default : No
Forced : No

Text #17
ID : 19
Format : UTF-8
Codec ID : S_TEXT/UTF8
Codec ID/Info : UTF-8 Plain Text
Duration : 34 min 6 s
Bit rate : 110 b/s
Count of elements : 631
Stream size : 27.7 KiB (0%)
Language : Norwegian
Default : No
Forced : No

Text #18
ID : 20
Format : UTF-8
Codec ID : S_TEXT/UTF8
Codec ID/Info : UTF-8 Plain Text
Duration : 34 min 6 s
Bit rate : 113 b/s
Count of elements : 641
Stream size : 28.3 KiB (0%)
Language : Polish
Default : No
Forced : No

Text #19
ID : 21
Format : UTF-8
Codec ID : S_TEXT/UTF8
Codec ID/Info : UTF-8 Plain Text
Duration : 34 min 6 s
Bit rate : 114 b/s
Count of elements : 637
Stream size : 28.6 KiB (0%)
Language : Portuguese
Default : No
Forced : No

Text #20
ID : 22
Format : UTF-8
Codec ID : S_TEXT/UTF8
Codec ID/Info : UTF-8 Plain Text
Duration : 34 min 6 s
Bit rate : 118 b/s
Count of elements : 636
Stream size : 29.6 KiB (0%)
Title : Brazilian
Language : Portuguese
Default : No
Forced : No

Text #21
ID : 23
Format : UTF-8
Codec ID : S_TEXT/UTF8
Codec ID/Info : UTF-8 Plain Text
Duration : 34 min 6 s
Bit rate : 116 b/s
Count of elements : 643
Stream size : 29.1 KiB (0%)
Language : Romanian
Default : No
Forced : No

Text #22
ID : 24
Format : UTF-8
Codec ID : S_TEXT/UTF8
Codec ID/Info : UTF-8 Plain Text
Duration : 34 min 6 s
Bit rate : 116 b/s
Count of elements : 649
Stream size : 29.0 KiB (0%)
Language : Slovak
Default : No
Forced : No

Text #23
ID : 25
Format : UTF-8
Codec ID : S_TEXT/UTF8
Codec ID/Info : UTF-8 Plain Text
Duration : 34 min 6 s
Bit rate : 102 b/s
Count of elements : 639
Stream size : 25.6 KiB (0%)
Language : Finnish
Default : No
Forced : No

Text #24
ID : 26
Format : UTF-8
Codec ID : S_TEXT/UTF8
Codec ID/Info : UTF-8 Plain Text
Duration : 34 min 6 s
Bit rate : 107 b/s
Count of elements : 629
Stream size : 26.9 KiB (0%)
Language : Swedish
Default : No
Forced : No

Text #25
ID : 27
Format : UTF-8
Codec ID : S_TEXT/UTF8
Codec ID/Info : UTF-8 Plain Text
Duration : 34 min 6 s
Bit rate : 113 b/s
Count of elements : 655
Stream size : 28.4 KiB (0%)
Language : Turkish
Default : No
Forced : No

Text #26
ID : 28
Format : UTF-8
Codec ID : S_TEXT/UTF8
Codec ID/Info : UTF-8 Plain Text
Duration : 34 min 6 s
Bit rate : 106 b/s
Count of elements : 640
Stream size : 26.7 KiB (0%)
Language : Czech
Default : No
Forced : No

Menu
00:34:14.009 : en:Credits

资源速度为零或资源敏感被和谐时,推荐使用qBittorrent等下载软件,有条件的推荐115更好的下载软件!

下载地址:


游客,如果您要查看本帖隐藏内容请回复

游客,如果您要查看本帖隐藏内容请回复

游客,如果您要查看本帖隐藏内容请回复

游客,如果您要查看本帖隐藏内容请回复






上一篇:渔业阴谋(简繁中字)/ Seaspiracy (2021) 4K高清版本下载
下一篇:达拉斯买家俱乐部 / Dallas Buyers Club‎ (2013) 4K高清版本下载
回复

使用道具 举报

56

主题

1490

帖子

4326

积分

4K家园VIP

Rank: 9Rank: 9Rank: 9

积分
4326
发表于 2022-6-12 20:20:18 来自手机 | 显示全部楼层
试试先,好用再说
回复 支持 反对

使用道具 举报

57

主题

1465

帖子

4231

积分

4K家园VIP

Rank: 9Rank: 9Rank: 9

积分
4231
发表于 2022-6-13 03:33:34 | 显示全部楼层
试试看吧
回复 支持 反对

使用道具 举报

0

主题

2

帖子

9

积分

新手上路

Rank: 1

积分
9
发表于 2022-6-13 09:42:08 | 显示全部楼层
不知道咋样,先支持一下分享好资源。
回复 支持 反对

使用道具 举报

61

主题

1484

帖子

4276

积分

4K家园VIP

Rank: 9Rank: 9Rank: 9

积分
4276
发表于 2022-6-13 15:17:59 来自手机 | 显示全部楼层
介是神马?!!
回复 支持 反对

使用道具 举报

0

主题

2

帖子

13

积分

新手上路

Rank: 1

积分
13
发表于 2022-6-13 15:52:20 | 显示全部楼层
入侵我国有dq】
回复 支持 反对

使用道具 举报

0

主题

1359

帖子

4091

积分

4K家园VIP

Rank: 9Rank: 9Rank: 9

积分
4091
发表于 2022-6-13 20:14:23 | 显示全部楼层
看着好像不错
回复 支持 反对

使用道具 举报

0

主题

23

帖子

334

积分

新手上路

Rank: 1

积分
334
发表于 2022-6-14 07:25:30 | 显示全部楼层
不知道多大体积的,之前有个4G版本后来又看到一个5.6G的版本
回复 支持 反对

使用道具 举报

0

主题

2

帖子

9

积分

新手上路

Rank: 1

积分
9
发表于 2022-6-14 18:41:13 来自手机 | 显示全部楼层
nice, thank you
回复 支持 反对

使用道具 举报

4

主题

1356

帖子

4090

积分

4K家园VIP

Rank: 9Rank: 9Rank: 9

积分
4090
发表于 2022-6-14 22:57:10 | 显示全部楼层
沙发位出租,
回复 支持 反对

使用道具 举报

您需要登录后才可以回帖 登录 | 立即注册

本版积分规则

精彩图文
Archiver|手机版|TAG|Sitemap|新帖|专题|联系我们:邮箱: 4kjia.com@gmail.com   

4k家园   ©2019