煤气灯 / Gaslit (2022) / 第一季全8集/4K高清版本下载

[复制链接]

154

主题

175

帖子

1746

积分

版主

Rank: 7Rank: 7Rank: 7

积分
1746
 楼主| 发表于 2022-6-13 15:11:12 | 显示全部楼层 |阅读模式
p2869893902_副本.jpg

◎译  名 煤气灯/煤气灯效应
◎片  名 Gaslit
◎年  代 2022
◎产  地 美国
◎类  别 剧情
◎语  言 英语
◎上映日期 2022-04-24(美国)
◎IMDb评分  7.0/10 from 2388 users
◎IMDb链接  https://www.imdb.com/title/tt11834592/
◎豆瓣评分 7.6/10 from 336 users
◎豆瓣链接 https://douban.com/subject/34971025/
◎集  数 8
◎导  演 马特·罗斯 Matt Ross
◎编  剧 罗比·皮克林 Robbie Pickering / 阿梅莉亚·格雷 Amelia Gray / 山姆·艾斯梅尔 Sam Esmail
◎主  演 朱莉娅·罗伯茨 Julia Roberts
       丹·史蒂文斯 Dan Stevens
       帕顿·奥斯瓦尔特 Patton Oswalt
       西恩·潘 Sean Penn
       埃瑞恩·海耶斯 Erinn Hayes
       谢伊·惠格姆 Shea Whigham
       布莱恩·格拉格提 Brian Geraghty
       达比·坎普 Darby Camp
       奈特·法松 Nat Faxon
       拉法埃尔·沙巴拉格 Raphael Sbarge
       内尔森·富兰克林 Nelson Franklin
       里德·戴蒙德 Reed Diamond
       克里斯·康纳 Chris Conner
       卡洛斯·瓦尔德斯 Carlos Valdes
       亚当·雷 Adam Ray
       比利·史密斯 Billy Smith
       贝蒂·吉尔平 Betty Gilpin
       艾莉森·托尔曼 Allison Tolman
       J.C.麦肯泽 J.C. MacKenzie
       安妮·达德克 Anne Dudek
       斯科特·迈克尔·摩根 Scott Michael Morgan
       乔迪·卡巴勒罗 Jordi Caballero
       奥斯卡·托瑞 Oscar Torre
       克里斯·鲍尔 Chris Bauer
       杰夫·道切特 Jeff Doucette
       休·B·赫鲁伯 Hugh B. Holub
       哈米什·林克莱特 Hamish Linklater
       克里斯·梅西纳 Chris Messina
       凯特·福斯特 Kat Foster
       内森·科德里 Nathan Corddry
       贝丝·霍尔 Beth Hall
       克里斯·贾伊·阿历克斯 Chris Jai Alex
       马特·卡明斯基 Matt Kaminsky
       安德鲁·帕特里克·拉斯顿 Andrew Patrick Ralston
       斯蒂芬妮·纳什 Stephanie Nash


◎简  介

  本剧改编自播客《Slow Burn》第一季,聚焦水门事件丑闻背后不为人知的故事和被遗忘的人物——从尼克松总统笨手笨脚、投机取巧的下属,到帮助、教唆他们犯下罪行的狂热派,以及最终导致整个腐败团体下台的吹哨人。

  故事围绕Martha Mitchell展开。Martha惹人注目、口无遮拦,是阿肯色州的社交名流,也是尼克松忠诚的司法部长John Mitchell的妻子。尽管她有党派背景,却是第一个公开就尼克松参与水门事件发出警告的人,这导致了总统任期的崩塌,和她的个人生活的破裂。作为司法部长,Mitchell是尼克松最信任的顾问和最好的朋友。他脾气暴躁、出口成脏、冷酷无情,但也无可救药地爱着自己以直言不讳而闻名的妻子。Mitchell将被迫在Martha和总统之间做出选择。

Video
ID : 1
Format : HEVC
Format/Info : High Efficiency Video Coding
Format profile : Main@L5@High
Codec ID : V_MPEGH/ISO/HEVC
Duration : 1 h 0 min
Bit rate : 14.9 Mb/s
Width : 3 840 pixels
Height : 2 160 pixels
Display aspect ratio : 16:9
Frame rate mode : Constant
Frame rate : 23.976 (24000/1001) FPS
Color space : YUV
Chroma subsampling : 4:2:0
Bit depth : 8 bits
Bits/(Pixel*Frame) : 0.075
Stream size : 6.25 GiB (96%)
Default : Yes
Forced : No
Color range : Limited
Color primaries : BT.709
Transfer characteristics : BT.709
Matrix coefficients : BT.709

Audio
ID : 2
Format : E-AC-3
Format/Info : Enhanced AC-3
Commercial name : Dolby Digital Plus
Codec ID : A_EAC3
Duration : 1 h 0 min
Bit rate mode : Constant
Bit rate : 640 kb/s
Channel(s) : 6 channels
Channel layout : L R C LFE Ls Rs
Sampling rate : 48.0 kHz
Frame rate : 31.250 FPS (1536 SPF)
Bit depth : 32 bits
Compression mode : Lossy
Stream size : 275 MiB (4%)
Language : English
Service kind : Complete Main
Default : No
Forced : No

Text #1
ID : 3
Format : UTF-8
Codec ID : S_TEXT/UTF8
Codec ID/Info : UTF-8 Plain Text
Duration : 57 min 58 s
Bit rate : 73 b/s
Count of elements : 1013
Stream size : 31.2 KiB (0%)
Language : English
Default : No
Forced : No

Text #2
ID : 4
Format : UTF-8
Codec ID : S_TEXT/UTF8
Codec ID/Info : UTF-8 Plain Text
Duration : 58 min 4 s
Bit rate : 83 b/s
Count of elements : 1156
Stream size : 35.5 KiB (0%)
Title : SDH
Language : English
Default : No
Forced : No

Menu
00:00:06.000 : :Recap
00:01:43.000 : :Chapter 1
00:57:41.000 : :Credits


下载地址

游客,如果您要查看本帖隐藏内容请回复




上一篇:第一夫人 / The First Lady (2022) / 第一季全10集/4K高清版本下载
下一篇:德黑兰(简繁粤中字)Tehran第二季/全8集(2022)/4K高清版本下载
回复

使用道具 举报

4

主题

1630

帖子

4490

积分

4K家园VIP

Rank: 9Rank: 9Rank: 9

积分
4490
发表于 2022-6-13 15:11:39 来自手机 | 显示全部楼层
向楼主学习
回复 支持 反对

使用道具 举报

13

主题

1216

帖子

3620

积分

4K家园VIP

Rank: 9Rank: 9Rank: 9

积分
3620
发表于 2022-6-13 15:11:39 | 显示全部楼层
沙发位出租,
回复 支持 反对

使用道具 举报

1

主题

1728

帖子

4794

积分

4K家园VIP

Rank: 9Rank: 9Rank: 9

积分
4794
发表于 2022-6-13 15:11:40 | 显示全部楼层
向楼主学习
回复 支持 反对

使用道具 举报

1

主题

1347

帖子

4059

积分

4K家园VIP

Rank: 9Rank: 9Rank: 9

积分
4059
发表于 2022-6-13 20:54:21 来自手机 | 显示全部楼层
感谢楼主发帖,前排顶起
回复 支持 反对

使用道具 举报

53

主题

1241

帖子

3791

积分

4K家园VIP

Rank: 9Rank: 9Rank: 9

积分
3791
发表于 2022-6-14 14:40:40 | 显示全部楼层
啥玩应呀
回复 支持 反对

使用道具 举报

您需要登录后才可以回帖 登录 | 立即注册

本版积分规则

精彩图文
Archiver|手机版|TAG|Sitemap|新帖|专题|联系我们:邮箱: 4kjia.com@gmail.com   

4k家园   ©2019