[4K UHD 蓝光原盘] 惊奇少女 [简繁中字] (2022) 第一季][更新至2集/4K高清版本下载

[复制链接]

154

主题

175

帖子

1746

积分

版主

Rank: 7Rank: 7Rank: 7

积分
1746
 楼主| 发表于 2022-6-14 09:44:39 | 显示全部楼层 |阅读模式
本帖最后由 美剧小虾 于 2022-6-15 16:39 编辑

p2871775116_副本.png

◎译  名 惊奇少女/惊奇女士
◎片  名 Ms. Marvel
◎年  代 2022
◎产  地 美国
◎类  别 剧情/喜剧/动作/科幻/悬疑/犯罪/奇幻/冒险
◎语  言 英语
◎上映日期 2022-06-08(美国)
◎IMDb评分  6.2/10 from 20023 users
◎IMDb链接  https://www.imdb.com/title/tt10857164/
◎豆瓣评分 6.9/10 from 2199 users
◎豆瓣链接 https://douban.com/subject/26358321/
◎集  数 6
◎导  演 阿迪尔·埃尔·阿比 Adil El Arbi / 比拉勒·法拉赫 Bilall Fallah / 莎梅·奥贝德-奇诺伊 Sharmeen Obaid-Chinoy / 蜜拉·梅农 Meera Menon
◎编  剧 毕莎·K·阿里 Bisha K. Ali / 萨拉·阿曼纳特 Sana Amanat
◎主  演 伊曼·韦拉尼 Iman Vellani
       马特·林茨 Matt Lintz
       安贾利·比玛尼 Anjali Bhimani
       里什·沙阿 Rish Shah
       泽诺比娅·谢罗夫 Zenobia Shroff
       亚思敏·弗莱彻 Yasmeen Fletcher
       劳雷尔·马斯登 Laurel Marsden
       莫汉·卡普尔 Mohan Kapur
       阿拉米斯·奈特 Aramis Knight
       法瓦德·可汗 Fawad Khan
       乔丹·菲尔斯特曼 Jordan Firstman
       莱斯·纳克里 Laith Nakli
       阿利·汗 Alyy Khan
       特拉维娜·斯普林格 Travina Springer
       Nimra Bucha Nimra Bucha
       阿莱西娅·雷纳 Alysia Reiner
       法尔汉·阿赫塔尔 Farhan Akhtar



◎简  介


  在新泽西州长大的卡玛拉·汗得知她拥有多面性的力量。
Video
ID : 1
Format : HEVC
Format/Info : High Efficiency Video Coding
Format profile : Main 10@L5@High
HDR format : Dolby Vision, Version 1.0, dvhe.05.06, BL+RPU
Codec ID : V_MPEGH/ISO/HEVC
Duration : 46 min 58 s
Bit rate : 15.7 Mb/s
Width : 3 840 pixels
Height : 2 160 pixels
Display aspect ratio : 16:9
Frame rate mode : Constant
Frame rate : 24.000 FPS
Color space : YUV
Chroma subsampling : 4:2:0
Bit depth : 10 bits
Bits/(Pixel*Frame) : 0.079
Stream size : 5.16 GiB (95%)
Language : English
Default : Yes
Forced : No
Color range : Full

Audio
ID : 2
Format : E-AC-3 JOC
Format/Info : Enhanced AC-3 with Joint Object Coding
Commercial name : Dolby Digital Plus with Dolby Atmos
Codec ID : A_EAC3
Duration : 46 min 58 s
Bit rate mode : Constant
Bit rate : 768 kb/s
Channel(s) : 6 channels
Channel layout : L R C LFE Ls Rs
Sampling rate : 48.0 kHz
Frame rate : 31.250 FPS (1536 SPF)
Compression mode : Lossy
Stream size : 258 MiB (5%)
Language : English
Service kind : Complete Main
Default : Yes
Forced : No
Complexity index : 16
Number of dynamic objects : 15
Bed channel count : 1 channel
Bed channel configuration : LFE

Text #1
ID : 3
Format : UTF-8
Codec ID : S_TEXT/UTF8
Codec ID/Info : UTF-8 Plain Text
Duration : 44 min 0 s
Bit rate : 83 b/s
Count of elements : 664
Stream size : 26.9 KiB (0%)
Title : English (SDH)
Language : English
Default : No
Forced : No

Text #2
ID : 4
Format : UTF-8
Codec ID : S_TEXT/UTF8
Codec ID/Info : UTF-8 Plain Text
Duration : 46 min 19 s
Bit rate : 59 b/s
Count of elements : 581
Stream size : 20.2 KiB (0%)
Title : Čeština
Language : Czech
Default : No
Forced : No

Text #3
ID : 5
Format : UTF-8
Codec ID : S_TEXT/UTF8
Codec ID/Info : UTF-8 Plain Text
Duration : 46 min 19 s
Bit rate : 55 b/s
Count of elements : 420
Stream size : 18.9 KiB (0%)
Title : Dansk
Language : Danish
Default : No
Forced : No

Text #4
ID : 6
Format : UTF-8
Codec ID : S_TEXT/UTF8
Codec ID/Info : UTF-8 Plain Text
Duration : 46 min 19 s
Bit rate : 61 b/s
Count of elements : 563
Stream size : 20.9 KiB (0%)
Title : Deutsch
Language : German
Default : No
Forced : No

Text #5
ID : 7
Format : UTF-8
Codec ID : S_TEXT/UTF8
Codec ID/Info : UTF-8 Plain Text
Duration : 46 min 19 s
Bit rate : 112 b/s
Count of elements : 582
Stream size : 38.2 KiB (0%)
Title : Greek
Language : Greek
Default : No
Forced : No

Text #6
ID : 8
Format : UTF-8
Codec ID : S_TEXT/UTF8
Codec ID/Info : UTF-8 Plain Text
Duration : 46 min 19 s
Bit rate : 66 b/s
Count of elements : 577
Stream size : 22.7 KiB (0%)
Title : Español
Language : Spanish
Default : No
Forced : No

Text #7
ID : 9
Format : UTF-8
Codec ID : S_TEXT/UTF8
Codec ID/Info : UTF-8 Plain Text
Duration : 46 min 19 s
Bit rate : 69 b/s
Count of elements : 584
Stream size : 23.6 KiB (0%)
Title : Español (Latinoamericano)
Language : Spanish
Default : No
Forced : No

Text #8
ID : 10
Format : UTF-8
Codec ID : S_TEXT/UTF8
Codec ID/Info : UTF-8 Plain Text
Duration : 46 min 19 s
Bit rate : 56 b/s
Count of elements : 580
Stream size : 19.3 KiB (0%)
Title : Suomi
Language : Finnish
Default : No
Forced : No

Text #9
ID : 11
Format : UTF-8
Codec ID : S_TEXT/UTF8
Codec ID/Info : UTF-8 Plain Text
Duration : 46 min 19 s
Bit rate : 60 b/s
Count of elements : 623
Stream size : 20.5 KiB (0%)
Title : Français
Language : French
Default : No
Forced : No

Text #10
ID : 12
Format : UTF-8
Codec ID : S_TEXT/UTF8
Codec ID/Info : UTF-8 Plain Text
Duration : 43 min 43 s
Bit rate : 63 b/s
Count of elements : 621
Stream size : 20.4 KiB (0%)
Title : Français (Canadien)
Language : French
Default : No
Forced : No

Text #11
ID : 13
Format : UTF-8
Codec ID : S_TEXT/UTF8
Codec ID/Info : UTF-8 Plain Text
Duration : 46 min 19 s
Bit rate : 66 b/s
Count of elements : 579
Stream size : 22.5 KiB (0%)
Title : Magyar
Language : Hungarian
Default : No
Forced : No

Text #12
ID : 14
Format : UTF-8
Codec ID : S_TEXT/UTF8
Codec ID/Info : UTF-8 Plain Text
Duration : 46 min 19 s
Bit rate : 66 b/s
Count of elements : 573
Stream size : 22.4 KiB (0%)
Title : Italiano
Language : Italian
Default : No
Forced : No

Text #13
ID : 15
Format : UTF-8
Codec ID : S_TEXT/UTF8
Codec ID/Info : UTF-8 Plain Text
Duration : 46 min 19 s
Bit rate : 58 b/s
Count of elements : 620
Stream size : 19.9 KiB (0%)
Title : Japanese
Language : Japanese
Default : No
Forced : No

Text #14
ID : 16
Format : UTF-8
Codec ID : S_TEXT/UTF8
Codec ID/Info : UTF-8 Plain Text
Duration : 46 min 19 s
Bit rate : 70 b/s
Count of elements : 587
Stream size : 23.8 KiB (0%)
Title : Korean
Language : Korean
Default : No
Forced : No

Text #15
ID : 17
Format : UTF-8
Codec ID : S_TEXT/UTF8
Codec ID/Info : UTF-8 Plain Text
Duration : 46 min 19 s
Bit rate : 56 b/s
Count of elements : 475
Stream size : 19.0 KiB (0%)
Title : Nederlands
Language : Dutch
Default : No
Forced : No

Text #16
ID : 18
Format : UTF-8
Codec ID : S_TEXT/UTF8
Codec ID/Info : UTF-8 Plain Text
Duration : 46 min 19 s
Bit rate : 65 b/s
Count of elements : 580
Stream size : 22.3 KiB (0%)
Title : Norsk
Language : Norwegian
Default : No
Forced : No

Text #17
ID : 19
Format : UTF-8
Codec ID : S_TEXT/UTF8
Codec ID/Info : UTF-8 Plain Text
Duration : 46 min 19 s
Bit rate : 61 b/s
Count of elements : 581
Stream size : 20.8 KiB (0%)
Title : Polski
Language : Polish
Default : No
Forced : No

Text #18
ID : 20
Format : UTF-8
Codec ID : S_TEXT/UTF8
Codec ID/Info : UTF-8 Plain Text
Duration : 46 min 19 s
Bit rate : 69 b/s
Count of elements : 577
Stream size : 23.5 KiB (0%)
Title : Português
Language : Portuguese
Default : No
Forced : No

Text #19
ID : 21
Format : UTF-8
Codec ID : S_TEXT/UTF8
Codec ID/Info : UTF-8 Plain Text
Duration : 46 min 19 s
Bit rate : 72 b/s
Count of elements : 586
Stream size : 24.5 KiB (0%)
Title : Português (Brasil)
Language : Portuguese
Default : No
Forced : No

Text #20
ID : 22
Format : UTF-8
Codec ID : S_TEXT/UTF8
Codec ID/Info : UTF-8 Plain Text
Duration : 46 min 19 s
Bit rate : 69 b/s
Count of elements : 580
Stream size : 23.7 KiB (0%)
Title : Română
Language : Romanian
Default : No
Forced : No

Text #21
ID : 23
Format : UTF-8
Codec ID : S_TEXT/UTF8
Codec ID/Info : UTF-8 Plain Text
Duration : 46 min 19 s
Bit rate : 61 b/s
Count of elements : 581
Stream size : 21.0 KiB (0%)
Title : Slovenčina
Language : Slovak
Default : No
Forced : No

Text #22
ID : 24
Format : UTF-8
Codec ID : S_TEXT/UTF8
Codec ID/Info : UTF-8 Plain Text
Duration : 46 min 19 s
Bit rate : 64 b/s
Count of elements : 575
Stream size : 21.8 KiB (0%)
Title : Svenska
Language : Swedish
Default : No
Forced : No

Text #23
ID : 25
Format : UTF-8
Codec ID : S_TEXT/UTF8
Codec ID/Info : UTF-8 Plain Text
Duration : 46 min 19 s
Bit rate : 67 b/s
Count of elements : 582
Stream size : 22.9 KiB (0%)
Title : Türkçe
Language : Turkish
Default : No
Forced : No

Text #24
ID : 26
Format : UTF-8
Codec ID : S_TEXT/UTF8
Codec ID/Info : UTF-8 Plain Text
Duration : 46 min 19 s
Bit rate : 52 b/s
Count of elements : 587
Stream size : 17.8 KiB (0%)
Title : 中文(粤语)
Language : 中文
Default : No
Forced : No


Text #25
ID : 27
Format : UTF-8
Codec ID : S_TEXT/UTF8
Codec ID/Info : UTF-8 Plain Text
Duration : 46 min 19 s
Bit rate : 53 b/s
Count of elements : 588
Stream size : 18.1 KiB (0%)
Title : 中文(繁体)
Language : 中文
Default : No
Forced : No

Text #26
ID : 28
Format : UTF-8
Codec ID : S_TEXT/UTF8
Codec ID/Info : UTF-8 Plain Text
Duration : 46 min 19 s
Bit rate : 62 b/s
Count of elements : 588
Stream size : 21.4 KiB (0%)
Title : 中文(简体)
Language : 中文
Default : No
Forced : No
下载地址:

第二季
游客,如果您要查看本帖隐藏内容请回复

游客,如果您要查看本帖隐藏内容请回复

游客,如果您要查看本帖隐藏内容请回复


第一季
游客,如果您要查看本帖隐藏内容请回复

游客,如果您要查看本帖隐藏内容请回复

游客,如果您要查看本帖隐藏内容请回复



QQ图片20220614093041_副本.png
4K.gif

上一篇:暗夜博士:莫比亚斯 / Morbius (2022) 4K蓝光[原盘+REMUX]版本下载
下一篇:桂河大桥 (简繁中字) (1957) 4K蓝光[原盘+REMUX]版本下载
回复

使用道具 举报

39

主题

1529

帖子

4381

积分

4K家园VIP

Rank: 9Rank: 9Rank: 9

积分
4381
发表于 2022-6-15 16:40:00 | 显示全部楼层
你们要是有4K资源记得分享,别小气
回复 支持 反对

使用道具 举报

48

主题

1597

帖子

4607

积分

4K家园VIP

Rank: 9Rank: 9Rank: 9

积分
4607
发表于 2022-6-15 17:41:12 | 显示全部楼层
4K家园资源不错,前排支持
回复 支持 反对

使用道具 举报

2

主题

1683

帖子

4637

积分

4K家园VIP

Rank: 9Rank: 9Rank: 9

积分
4637
发表于 2022-6-15 19:08:24 | 显示全部楼层
支持一下楼主,顶起来
回复 支持 反对

使用道具 举报

8

主题

1171

帖子

3481

积分

4K家园VIP

Rank: 9Rank: 9Rank: 9

积分
3481
发表于 2022-6-15 22:05:17 | 显示全部楼层
谢谢楼主
回复 支持 反对

使用道具 举报

1

主题

1325

帖子

3859

积分

4K家园VIP

Rank: 9Rank: 9Rank: 9

积分
3859
发表于 2022-6-16 00:45:57 来自手机 | 显示全部楼层
支持一下楼主,顶起来
回复 支持 反对

使用道具 举报

0

主题

2

帖子

9

积分

新手上路

Rank: 1

积分
9
发表于 2022-6-16 23:17:41 来自手机 | 显示全部楼层
谢谢楼主
回复

使用道具 举报

0

主题

1

帖子

10

积分

新手上路

Rank: 1

积分
10
发表于 2022-6-19 22:41:43 | 显示全部楼层
让我康康
回复

使用道具 举报

您需要登录后才可以回帖 登录 | 立即注册

本版积分规则

精彩图文
Archiver|手机版|TAG|Sitemap|新帖|专题|联系我们:邮箱: 4kjia.com@gmail.com   

4k家园   ©2019