[4K电影] 米纳里 / Minari (2020) 4K高清版本下载

[复制链接]

2299

主题

2448

帖子

1万

积分

超级版主

Rank: 8Rank: 8

积分
17752
 楼主| 发表于 2022-6-14 20:48:43 | 显示全部楼层 |阅读模式
本帖最后由 没完没了 于 2022-6-15 09:32 编辑

QQ图片20220614203042_副本.png

◎译  名 米纳里/???/农情家园(港)/梦想之地(台)/水芹菜
◎片  名 Minari
◎年  代 2020
◎产  地 美国
◎类  别 剧情
◎语  言 韩语,英语
◎上映日期 2020-01-26(圣丹斯电影节) / 2021-02-12(美国) / 2021-02-26(美国网络)
◎IMDb评分  7.4/10 from 75692 users
◎IMDb链接  https://www.imdb.com/title/tt10633456/
◎豆瓣评分 7.3/10 from 23076 users
◎豆瓣链接 https://movie.douban.com/subject/34463995/
◎片  长 115分钟
◎导  演 李·以萨克·郑 Lee Isaac Chung
◎编  剧 李·以萨克·郑 Lee Isaac Chung
◎主  演 史蒂文·元 Steven Yeun
       韩艺璃 Ye-ri Han
       达里尔·考克斯 Darryl Cox
       威尔·帕顿 Will Patton
       尹汝贞 Yeo-jeong Yoon
       蒂娜·帕克 Tina Parker
       斯科特·黑兹 Scott Haze
       艾伦·S·金 Alan S. Kim
       劳里·卡明斯 Laurie Cummings
       埃里克·斯达克 Eric Starkey
       伊瑟·文 Esther Moon
       诺尔·曹 Noel Cho


◎简  介

  故事发生在20世纪80年代的美国,美籍韩裔男子雅各布(史蒂文·元 Steven Yeun 饰)带着妻子莫妮卡(韩艺璃 饰)和两个孩子大卫(Alan S. Kim 饰)、安妮(Noel Cho 饰)一起从熟悉的西海岸搬到了偏僻而又陌生的阿肯色州。虽然对于丈夫的这一决定,莫妮卡的心中十分的反对,但她拗不过雅各布的坚决和顽固,只得被迫夫唱妇随。

  蛮荒之地的生活既不舒适也不有趣,在最初的新鲜感过去之后,大卫和安妮很快就开始怀念起过去的生活了。之后,孩子们的外婆也来到了他们的身边,给这个家庭带来了一丝热闹的气息。雅各布没有发现的是,当他将越来越多的时间和精力投入到开发农场这件事情上时,他和妻子之间的距离就越来越远。

◎获奖情况

  第78届金球奖 ?(2021)
  电影类最佳外语片

  第74届英国电影学院奖 ?(2021)
  电影奖最佳导演(提名) 李·以萨克·郑
  电影奖最佳男配角(提名) 艾伦·S·金
  电影奖最佳女配角 尹汝贞
  电影奖最佳非英语片(提名)
  电影奖最佳原创配乐(提名)
  电影奖最佳选角(提名)

  第36届圣丹斯电影节 ?(2020)
  评审团大奖剧情片 李·以萨克·郑
  观众奖剧情片

  第73届美国导演工会奖 ?(2021)
  最佳电影导演(提名) 李·以萨克·郑

  第27届美国演员工会奖 ?(2021)
  电影奖最佳男主角(提名) 史蒂文·元
  电影奖最佳女配角 尹汝贞
  电影奖最佳群戏(提名)

  第32届美国制片人工会奖 ?(2021)
  最佳电影制片人奖(提名)

  第71届美国剪辑工会奖 ?(2021)
  剧情片最佳剪辑(提名) 哈里·尹

  第92届美国国家评论协会奖 ?(2020)
  最佳女配角 尹汝贞
  最佳原创剧本 李·以萨克·郑
  年度佳片

  第26届美国评论家选择电影奖 ?(2021)
  最佳影片(提名)
  最佳导演(提名) 李·以萨克·郑
  最佳男主角(提名) 史蒂文·元
  最佳女配角(提名) 尹汝贞
  最佳青少年演员 艾伦·S·金
  最佳群戏(提名)
  最佳外语片
  最佳原创剧本(提名) 李·以萨克·郑
  最佳摄影(提名) 拉克兰·米尔恩
  最佳配乐(提名) 埃米尔·莫塞利

  第36届美国独立精神奖 ?(2021)
  最佳影片(提名)
  最佳导演(提名) 李·以萨克·郑
  最佳男主角(提名) 史蒂文·元
  最佳女配角 尹汝贞
  最佳女配角(提名) 韩艺璃
  最佳剧本(提名)

  第30届哥谭独立电影奖 ?(2020)
  最佳女演员(提名) 尹汝贞

  第21届美国电影学会奖 ?(2020)
  年度佳片

  第25届金卫星奖 ?(2021)
  电影部门最佳剧情片(提名)
  电影部门最佳导演(提名) 李·以萨克·郑
  电影部门剧情片最佳男主角(提名) 史蒂文·元
  电影部门最佳女配角(提名) 尹汝贞
  电影部门最佳原创剧本(提名) 李·以萨克·郑
  电影部门最佳原创配乐(提名) 埃米尔·莫塞利
  电影部门最佳剪辑(提名) 哈里·尹

  第55届美国国家影评人协会奖 ?(2021)
  最佳女配角(提名) 尹汝贞

  第41届伦敦影评人协会奖 ?(2021)
  年度电影(提名)
  年度外语片(提名)

  第41届波士顿影评人协会奖 ?(2020)
  最佳女配角 尹汝贞
  最佳音乐 埃米尔·莫塞利
  最佳群像表演(提名)

  第46届洛杉矶影评人协会奖 ?(2020)
  最佳女配角 尹汝贞

  第33届芝加哥影评人协会奖 ?(2020)
  最佳男主角(提名) 史蒂文·元
  最佳女配角(提名) 尹汝贞
  最具突破导演(米洛斯·斯泰利克奖)(提名) 李·以萨克·郑

  第5届亚特兰大影评人协会奖 ?(2020)
  十佳影片
  最佳女配角(提名) 尹汝贞

  第24届美国在线影评人协会奖 ?(2021)
  最佳影片(提名)
  最佳男主角(提名) 史蒂文·元
  最佳女配角(提名) 尹汝贞
  最佳原创剧本(提名) 李·以萨克·郑
  最佳原创配乐(提名) 埃米尔·莫塞利
  最佳非英语片

Video
ID : 1
Format : HEVC
Format/Info : High Efficiency Video Coding
Format profile : Main 10@L5@High
HDR format : Dolby Vision, Version 1.0, dvhe.05.06, BL+RPU
Codec ID : V_MPEGH/ISO/HEVC
Duration : 1 h 55 min
Bit rate : 24.4 Mb/s
Width : 3 832 pixels
Height : 1 600 pixels
Display aspect ratio : 2.40:1
Frame rate mode : Constant
Frame rate : 23.976 (23976/1000) FPS
Color space : YUV
Chroma subsampling : 4:2:0
Bit depth : 10 bits
Bits/(Pixel*Frame) : 0.166
Stream size : 19.6 GiB (85%)
Language : English
Default : Yes
Forced : No

Audio #1
ID : 2
ID in the original source medium : 4352 (0x1100)
Format : DTS XLL
Format/Info : Digital Theater Systems
Commercial name : DTS-HD Master Audio
Codec ID : A_DTS
Duration : 1 h 55 min
Bit rate mode : Variable
Bit rate : 3 395 kb/s
Channel(s) : 6 channels
Channel layout : C L R Ls Rs LFE
Sampling rate : 48.0 kHz
Frame rate : 93.750 FPS (512 SPF)
Bit depth : 24 bits
Compression mode : Lossless
Stream size : 2.73 GiB (12%)
Title : DTS-HD MA 5.1
Language : Korean
Default : Yes
Forced : No
Original source medium : Blu-ray

Audio #2
ID : 3
Format : E-AC-3 JOC
Format/Info : Enhanced AC-3 with Joint Object Coding
Commercial name : Dolby Digital Plus with Dolby Atmos
Codec ID : A_EAC3
Duration : 1 h 55 min
Bit rate mode : Constant
Bit rate : 768 kb/s
Channel(s) : 6 channels
Channel layout : L R C LFE Ls Rs
Sampling rate : 48.0 kHz
Frame rate : 31.250 FPS (1536 SPF)
Compression mode : Lossy
Stream size : 633 MiB (3%)
Language : Korean
Service kind : Complete Main
Default : No
Forced : No
Complexity index : 16
Number of dynamic objects : 15
Bed channel count : 1 channel
Bed channel configuration : LFE

Text #1
ID : 4
Format : UTF-8
Codec ID : S_TEXT/UTF8
Codec ID/Info : UTF-8 Plain Text
Duration : 1 h 48 min
Bit rate : 14 b/s
Count of elements : 513
Stream size : 11.9 KiB (0%)
Language : English
Default : Yes
Forced : No

Text #2
ID : 5
Format : UTF-8
Codec ID : S_TEXT/UTF8
Codec ID/Info : UTF-8 Plain Text
Duration : 1 h 54 min
Bit rate : 26 b/s
Count of elements : 948
Stream size : 22.2 KiB (0%)
Title : SDH
Language : English
Default : No
Forced : No

Text #3
ID : 6
ID in the original source medium : 4608 (0x1200)
Format : PGS
Muxing mode : zlib
Codec ID : S_HDMV/PGS
Codec ID/Info : Picture based subtitle format used on BDs/HD-DVDs
Duration : 1 h 54 min
Bit rate : 16.8 kb/s
Count of elements : 1846
Stream size : 13.8 MiB (0%)
Language : English
Default : No
Forced : No
Original source medium : Blu-ray

Text #4
ID : 7
ID in the original source medium : 4609 (0x1201)
Format : PGS
Muxing mode : zlib
Codec ID : S_HDMV/PGS
Codec ID/Info : Picture based subtitle format used on BDs/HD-DVDs
Duration : 1 h 53 min
Bit rate : 22.7 kb/s
Count of elements : 2370
Stream size : 18.5 MiB (0%)
Language : Spanish
Default : No
Forced : No
Original source medium : Blu-ray

Menu
00:00:00.000 : en:Chapter 1
00:24:34.000 : en:Chapter 2
00:49:44.000 : en:Chapter 3
01:20:17.000 : en:Chapter 4
01:51:31.000 : en:Chapter 5

资源速度为零或资源敏感被和谐时,推荐使用qBittorrent等下载软件,有条件的推荐115更好的下载软件!

下载地址:


游客,如果您要查看本帖隐藏内容请回复

游客,如果您要查看本帖隐藏内容请回复

游客,如果您要查看本帖隐藏内容请回复



.

上一篇:低潮 / Low Tide (2018) 4K高清版本下载
下一篇:岳父大人 / Father of the Bride (2022) 4K高清版本下载
回复

使用道具 举报

1

主题

1431

帖子

4103

积分

4K家园VIP

Rank: 9Rank: 9Rank: 9

积分
4103
发表于 2022-6-14 20:48:47 | 显示全部楼层
这个资源我记得是一套的,楼主还有没有
回复 支持 反对

使用道具 举报

0

主题

2

帖子

19

积分

新手上路

Rank: 1

积分
19
发表于 2022-6-14 22:46:17 | 显示全部楼层
支持楼主
回复

使用道具 举报

0

主题

468

帖子

2853

积分

注册会员

Rank: 2

积分
2853
发表于 2022-6-15 13:31:01 | 显示全部楼层
谢谢楼主分享
回复 支持 反对

使用道具 举报

2

主题

1441

帖子

4161

积分

中级会员

Rank: 4

积分
4161
发表于 2022-6-21 04:10:53 | 显示全部楼层
楼猪辛苦了,支持一下分享好资源
回复 支持 反对

使用道具 举报

4

主题

1446

帖子

4182

积分

4K家园VIP

Rank: 9Rank: 9Rank: 9

积分
4182
发表于 2022-6-23 17:06:35 | 显示全部楼层
呵呵,低调,低调!
回复 支持 反对

使用道具 举报

1

主题

1355

帖子

4081

积分

4K家园VIP

Rank: 9Rank: 9Rank: 9

积分
4081
发表于 2022-6-26 12:46:43 来自手机 | 显示全部楼层
我擦!我要沙发!
回复 支持 反对

使用道具 举报

1

主题

1522

帖子

4416

积分

4K家园VIP

Rank: 9Rank: 9Rank: 9

积分
4416
发表于 2022-6-30 14:31:02 | 显示全部楼层
元芳你怎么看?
回复 支持 反对

使用道具 举报

0

主题

1

帖子

10

积分

新手上路

Rank: 1

积分
10
发表于 2022-7-31 11:45:25 | 显示全部楼层
米纳里 / Minari (2020) 4K高清版本下载
回复 支持 反对

使用道具 举报

0

主题

1

帖子

6

积分

新手上路

Rank: 1

积分
6
发表于 2022-8-9 17:29:39 | 显示全部楼层
666666666666
回复 支持 反对

使用道具 举报

您需要登录后才可以回帖 登录 | 立即注册

本版积分规则

精彩图文
Archiver|手机版|TAG|Sitemap|新帖|专题|联系我们:邮箱: 4kjia.com@gmail.com   

4k家园   ©2019