[4K UHD 蓝光原盘] 天才不能承受之重 / Weight.of.Massive (2022) 4K蓝光版本下载

[复制链接]

1884

主题

1969

帖子

2万

积分

超级版主

Rank: 8Rank: 8

积分
20220
 楼主| 发表于 2022-6-16 10:01:01 | 显示全部楼层 |阅读模式

095006gv828oz548pou883.png

◎译  名 天才不能承受之重/超重天才/超吉任务(台)/丧尽癫才(港)/天才无法承受之重/不能承受的天才之重
◎片  名 The Unbearable Weight of Massive Talent
◎年  代 2022
◎产  地 美国
◎类  别 喜剧/动作/惊悚/犯罪
◎语  言 英语
◎上映日期 2022-03-12(西南偏南电影节)/2022-04-22(美国)
◎IMDb评分  7.4/10 from 21869 users
◎IMDb链接  https://www.imdb.com/title/tt11291274/
◎豆瓣评分 7.2/10 from 1112 users
◎豆瓣链接 https://movie.douban.com/subject/34890458/
◎导  演 汤姆·戈米肯 Tom Gormican
◎编  剧 汤姆·戈米肯 Tom Gormican / 凯文·埃滕 Kevin Etten
◎主  演 尼古拉斯·凯奇 Nicolas Cage
       佩德罗·帕斯卡 Pedro Pascal
       蒂凡尼·哈迪斯 Tiffany Haddish
       莎朗·豪根 Sharon Horgan
       帕科·莱昂 Paco León
       尼尔·帕特里克·哈里斯 Neil Patrick Harris
       莉莉·莫·辛 Lily Mo Sheen
       亚历桑德拉·马斯特罗纳迪 Alessandra Mastronardi
       雅各布·西皮奥 Jacob Scipio
       卡特琳·万科娃 Katrin Vankova
       黛米·摩尔 Demi Moore
       安娜·麦克唐纳 Anna MacDonald
       大卫·戈登·格林 David Gordon Green
       伊克·巴里霍尔兹 Ike Barinholtz
       卢克·麦昆 Luke McQueen
       乔安娜·波宾 Joanna Bobin
       曼纽尔陶勒 Manuel Tallafé
       里卡德·巴拉达 Ricard Balada
       杰米·奥多尼斯 Jaime Ordó?ez
       丽贝卡·芬奇 Rebecca Finch
       卡罗琳·博尔顿 Caroline Boulton
       比约恩·弗赖贝格 Bj?rn Freiberg
       艾丽·简 Eli Jane
       哈里·陶乐西 Harry Taurasi
       András Korcsmáros András Korcsmáros
       尼克·威特曼 Nick Wittman

◎简  介

  尼古拉斯·凯奇(Nicolas Cage)有新片了,这次他要在电影里演自己。
  该片主角就是尼古拉斯·凯奇本人,他疯狂的渴望在昆汀·塔伦蒂诺的下部电影里得到一个角色,他经常会和自己脑海中一个90年代的自己对话,后者不断吐槽他“老是接烂片”、“再也不是当年那个电影明星”了。
  讲述破产边缘的凯奇为了100万美元的酬劳去参加一个亿万富翁粉丝(佩德罗·帕斯卡 饰)的生日派对,但这位富豪是一个危险的毒枭。当凯奇被一名CIA特工招募后,事情发生了意想不到的转变,为了拯救自己和亲人,他被迫出演一个终生难忘的角色——尼古拉斯·凯奇,用他最具标志性和最受喜爱的银幕角色来履行自己的传奇人生。
  《才华Video不能承受之重》会有多个桥段向凯奇的代表作致敬,包括《离开拉斯维加斯》(Leaving Las Vegas)、《变脸》(Face-Off)、《极速60秒》(Gone in 60 Seconds)等。影片风格酷似凯奇主演过的2002年电影《改编剧本》(Adaptation),后者是导演斯派克·琼斯与编剧查理·考夫曼联手的杰作。

General
Complete name                  : F:\The.Unbearable.Weight.of.Massive.Talent.2022.2160p.UHD.Bluray.TrueHD.7.1.Atmos.HDR.x265-EVO
Format                         : Matroska
Format version                 : Version 4
File size                      : 24.5 GiB
Duration                       : 1 h 46 min
Overall bit rate mode          : Variable
Overall bit rate               : 32.9 Mb/s
Movie name                     : EVO
Encoded date                   : UTC 2022-06-15 21:03:37
Writing application            : mkvmerge v49.0.0 ('Sick Of Losing Soulmates') 64-bit
Writing library                : libebml v1.4.0 + libmatroska v1.6.1

Video
ID                             : 2
Format                         : HEVC
Format/Info                    : High Efficiency Video Coding
Format profile                 : Main 10@L5.1@High
HDR format                     : SMPTE ST 2086, HDR10 compatible
Codec ID                       : V_MPEGH/ISO/HEVC
Duration                       : 1 h 46 min
Bit rate                       : 28.3 Mb/s
Width                          : 3 840 pixels
Height                         : 2 160 pixels
Display aspect ratio           : 16:9
Frame rate mode                : Constant
Frame rate                     : 23.976 (24000/1001) FPS
Color space                    : YUV
Chroma subsampling             : 4:2:0 (Type 2)
Bit depth                      : 10 bits
Bits/(Pixel*Frame)             : 0.142
Stream size                    : 21.1 GiB (86%)
Default                        : Yes
Forced                         : No
Color range                    : Limited
Color primaries                : BT.2020
Transfer characteristics       : PQ
Matrix coefficients            : BT.2020 non-constant
Mastering display color primar : BT.2020
Mastering display luminance    : min: 0.0001 cd/m2, max: 1000 cd/m2
Maximum Content Light Level    : 423 cd/m2
Maximum Frame-Average Light Le : 231 cd/m2

Audio #1
ID                             : 1
Format                         : AC-3
Format/Info                    : Audio Coding 3
Commercial name                : Dolby Digital
Codec ID                       : A_AC3
Duration                       : 1 h 46 min
Bit rate mode                  : Constant
Bit rate                       : 640 kb/s
Channel(s)                     : 6 channels
Channel layout                 : L R C LFE Ls Rs
Sampling rate                  : 48.0 kHz
Frame rate                     : 31.250 FPS (1536 SPF)
Compression mode               : Lossy
Stream size                    : 489 MiB (2%)
Language                       : English
Service kind                   : Complete Main
Default                        : No
Forced                         : No

Audio #2
ID                             : 3
Format                         : MLP FBA 16-ch
Format/Info                    : Meridian Lossless Packing FBA with 16-channel presentation
Commercial name                : Dolby TrueHD with Dolby Atmos
Codec ID                       : A_TRUEHD
Duration                       : 1 h 46 min
Bit rate mode                  : Variable
Bit rate                       : 3 901 kb/s
Maximum bit rate               : 6 912 kb/s
Channel(s)                     : 8 channels
Channel layout                 : L R C LFE Ls Rs Lb Rb
Sampling rate                  : 48.0 kHz
Frame rate                     : 1 200.000 FPS (40 SPF)
Compression mode               : Lossless
Stream size                    : 2.91 GiB (12%)
Language                       : English
Default                        : Yes
Forced                         : No
Number of dynamic objects      : 11
Bed channel count              : 1 channel
Bed channel configuration      : LFE

Text #1
ID                             : 4
Format                         : PGS
Muxing mode                    : zlib
Codec ID                       : S_HDMV/PGS
Codec ID/Info                  : Picture based subtitle format used on BDs/HD-DVDs
Bit rate                       : 0 b/s
Count of elements              : 0
Stream size                    : 0.00 Byte (0%)
Language                       : English
Default                        : No
Forced                         : No

Text #2
ID                             : 5
Format                         : PGS
Muxing mode                    : zlib
Codec ID                       : S_HDMV/PGS
Codec ID/Info                  : Picture based subtitle format used on BDs/HD-DVDs
Bit rate                       : 0 b/s
Count of elements              : 0
Stream size                    : 0.00 Byte (0%)
Language                       : English
Default                        : No
Forced                         : No

Menu
00:00:00.000                   : en01)00:00:00:000
00:06:52.286                   : en02)00:06:52:286
00:13:02.948                   : en03)00:13:02:948
00:18:37.199                   : en04)00:18:37:199
00:23:51.888                   : en05)00:23:51:888
00:30:58.857                   : en06)00:30:58:857
00:35:46.727                   : en07)00:35:46:727
00:44:35.005                   : en08)00:44:35:005
00:52:18.468                   : en09)00:52:18:468
00:57:09.426                   : en10)00:57:09:426
01:01:42.573                   : en:(11)01:01:42:573
01:07:50.816                   : en:(12)01:07:50:816
01:17:42.783                   : en:(13)01:17:42:783
01:22:12.928                   : en:(14)01:22:12:928
01:28:39.063                   : en:(15)01:28:39:063
01:35:49.952                   : en:(16)01:35:49:952


新种推荐使用qBittorrent、uTorrent等下载软件,有条件的推荐115更好的下载软件!

天才不能承受之重(24.53GB)The.Unbearable.Weight.of.Massive.Talent.2022.2160p.UHD.Bluray.TrueHD.7.1.Atmos.HDR.x265-EVO
游客,如果您要查看本帖隐藏内容请回复




4K QQ,爱心.gif

上一篇:小鬼奇兵 / Cloak & Dagger (1984) 4K蓝光[原盘+REMUX]版本下载
下一篇:巨人传 / Giant (1956) 4K蓝光[原盘+REMUX]版本下载
回复

使用道具 举报

2

主题

1363

帖子

4105

积分

4K家园VIP

Rank: 9Rank: 9Rank: 9

积分
4105
发表于 2022-6-16 10:01:07 来自手机 | 显示全部楼层
4K家园资源最近貌似越来越多了
回复 支持 反对

使用道具 举报

1

主题

1314

帖子

3968

积分

4K家园VIP

Rank: 9Rank: 9Rank: 9

积分
3968
发表于 2022-6-16 10:01:07 来自手机 | 显示全部楼层
4K家园资源不错,前排支持
回复 支持 反对

使用道具 举报

0

主题

5

帖子

99

积分

4K家园VIP

Rank: 9Rank: 9Rank: 9

积分
99
发表于 2022-6-16 13:10:01 | 显示全部楼层
xcvxcvxcvxvcxcv
回复 支持 反对

使用道具 举报

6

主题

1443

帖子

4205

积分

中级会员

Rank: 4

积分
4205
发表于 2022-6-16 13:30:21 | 显示全部楼层
支持一下楼主,顶起来
回复 支持 反对

使用道具 举报

4

主题

1667

帖子

4601

积分

4K家园VIP

Rank: 9Rank: 9Rank: 9

积分
4601
发表于 2022-6-16 13:35:00 | 显示全部楼层
谢谢楼主
回复 支持 反对

使用道具 举报

54

主题

1566

帖子

4486

积分

4K家园VIP

Rank: 9Rank: 9Rank: 9

积分
4486
发表于 2022-6-16 14:35:21 | 显示全部楼层
楼猪辛苦了,支持一下分享好资源
回复 支持 反对

使用道具 举报

0

主题

1

帖子

6

积分

新手上路

Rank: 1

积分
6
发表于 2022-6-16 20:55:43 | 显示全部楼层
支持
回复

使用道具 举报

4

主题

14

帖子

355

积分

4K家园VIP

Rank: 9Rank: 9Rank: 9

积分
355
发表于 2022-6-17 08:54:01 | 显示全部楼层
楼主有黑袍纠察队第三季和大空头吗
回复 支持 反对

使用道具 举报

0

主题

468

帖子

2853

积分

注册会员

Rank: 2

积分
2853
发表于 2022-6-17 12:00:06 | 显示全部楼层
谢谢楼主分享
回复 支持 反对

使用道具 举报

您需要登录后才可以回帖 登录 | 立即注册

本版积分规则

精彩图文
Archiver|手机版|TAG|Sitemap|新帖|专题|联系我们:邮箱: 4kjia.com@gmail.com   

4k家园   ©2019