[4K美女视频] [大尺度欧美 4K视频] 2022 罗莎莉亚 4K[2160P/MOV/4.82GB]

[复制链接]

2846

主题

3211

帖子

2万

积分

超级版主

Rank: 8Rank: 8

积分
27159
 楼主| 发表于 2022-6-16 13:10:33 | 显示全部楼层 |阅读模式
本帖最后由 叽里呱啦 于 2022-6-17 20:22 编辑

Rosalía - Motomami.mov_20220616_125028.093.jpg Rosalía - Motomami.mov_20220616_125153.685.jpg Rosalía - Motomami.mov_20220616_125201.245.jpg Rosalía - Motomami.mov_20220616_125211.269.jpg Rosalía - Motomami.mov_20220616_125433.398.jpg Rosalía - Motomami.mov_20220616_125250.325.jpg Rosalía - Motomami.mov_20220616_125259.869.jpg Rosalía - Motomami.mov_20220616_125318.813.jpg

General
Complete name                  : J:\4K 欧美\Rosalía - Motomami.mov
Format                         : MPEG-4
Format profile                 : QuickTime
Codec ID                       : qt   0000.02 (qt  )
File size                      : 4.82 GiB
Duration                       : 1 min 0 s
Overall bit rate mode          : Variable
Overall bit rate               : 681 Mb/s
Writing application            : Lavf58.76.100

Video
ID                             : 1
Format                         : ProRes
Format version                 : Version 0
Format profile                 : 422 HQ
Codec ID                       : apch
Duration                       : 1 min 0 s
Bit rate mode                  : Variable
Bit rate                       : 679 Mb/s
Width                          : 4 096 pixels
Height                         : 2 160 pixels
Display aspect ratio           : 1.896
Frame rate mode                : Constant
Frame rate                     : 25.000 FPS
Color space                    : YUV
Chroma subsampling             : 4:2:2
Scan type                      : Progressive
Bits/(Pixel*Frame)             : 3.071
Stream size                    : 4.81 GiB (100%)
Writing library                : Apple
Color primaries                : BT.709
Transfer characteristics       : BT.709
Matrix coefficients            : BT.709

Audio
ID                             : 2
Format                         : PCM
Format settings                : Little / Signed
Codec ID                       : sowt
Duration                       : 1 min 0 s
Bit rate mode                  : Constant
Bit rate                       : 1 536 kb/s
Channel(s)                     : 2 channels
Channel layout                 : L R
Sampling rate                  : 48.0 kHz
Bit depth                      : 16 bits
Stream size                    : 11.1 MiB (0%)
Language                       : English
Default                        : Yes
Alternate group                : 1

c3519c864dfe7256ca743e0588481002.jpg

下载地址:

****此区域为收费内容****    需支付 30 金币后可查看立即购买

提供2010-2022年本人多年来珍藏优质[4K、8K、16K(25-120fps)] 高品质韩国(女团)MV、各种演示片、测试片等4K韩国MV“珍藏版”视频硬盘有偿拷贝或网盘分享,最新4K视频每天更新中,需要的联系本楼主!




Rosalía (Rosalia) • Motomami [2022, Pop, Master, 2160p] .torrent

12.51 KB, 下载次数: 80, 下载积分: 金币 -10

售价: 30 金币  [记录]  [购买]


上一篇:[4K国家地理] 俄罗斯-雅库特 (2021) [2160P/MKV/482MB]
下一篇:[4K国家地理] 意大利国家公园-大天堂 (2021) [2160P/MKV/371MB]
回复

使用道具 举报

4

主题

1436

帖子

4144

积分

中级会员

Rank: 4

积分
4144
发表于 2022-6-16 13:10:37 | 显示全部楼层
感谢楼主的分享,还是阔以滴
回复 支持 反对

使用道具 举报

2

主题

1579

帖子

4309

积分

4K家园VIP

Rank: 9Rank: 9Rank: 9

积分
4309
发表于 2022-6-16 19:47:57 | 显示全部楼层
额.....这个可以有
回复 支持 反对

使用道具 举报

0

主题

1366

帖子

3920

积分

4K家园VIP

Rank: 9Rank: 9Rank: 9

积分
3920
发表于 2022-6-16 20:42:53 | 显示全部楼层
无论是不是沙发都得回复下
回复 支持 反对

使用道具 举报

5

主题

1503

帖子

4353

积分

4K家园VIP

Rank: 9Rank: 9Rank: 9

积分
4353
发表于 2022-6-16 22:17:38 | 显示全部楼层
撸过
回复 支持 反对

使用道具 举报

1

主题

1428

帖子

4100

积分

4K家园VIP

Rank: 9Rank: 9Rank: 9

积分
4100
发表于 2022-6-17 00:28:36 | 显示全部楼层
路过 帮顶 嘿嘿
回复 支持 反对

使用道具 举报

0

主题

30

帖子

674

积分

4K家园VIP

Rank: 9Rank: 9Rank: 9

积分
674
发表于 2022-6-18 16:22:56 来自手机 | 显示全部楼层
谢谢分享
回复

使用道具 举报

0

主题

2

帖子

9

积分

新手上路

Rank: 1

积分
9
发表于 2022-6-21 00:28:25 来自手机 | 显示全部楼层
感谢楼主的分享,还是
回复 支持 反对

使用道具 举报

1

主题

650

帖子

8834

积分

4K家园VIP

Rank: 9Rank: 9Rank: 9

积分
8834
QQ
发表于 2022-6-21 14:02:41 | 显示全部楼层

额.....这个可以有
回复 支持 反对

使用道具 举报

1

主题

650

帖子

8834

积分

4K家园VIP

Rank: 9Rank: 9Rank: 9

积分
8834
QQ
发表于 2022-6-21 14:24:30 | 显示全部楼层
已经过期了,麻烦补档。
回复 支持 反对

使用道具 举报

您需要登录后才可以回帖 登录 | 立即注册

本版积分规则

精彩图文
Archiver|手机版|TAG|Sitemap|新帖|专题|联系我们:邮箱: 4kjia.com@gmail.com   

4k家园   ©2019