[4K MV] 2022 Seventeen - Hot - 4k [2160P/MP4/2.26GB]

[复制链接]

2846

主题

3211

帖子

2万

积分

超级版主

Rank: 8Rank: 8

积分
27159
 楼主| 发表于 2022-6-19 11:30:08 | 显示全部楼层 |阅读模式
Seventeen - Hot.mp4_20220616_131556.648.jpg Seventeen - Hot.mp4_20220616_131605.232.jpg Seventeen - Hot.mp4_20220616_131617.919.jpg Seventeen - Hot.mp4_20220616_131636.816.jpg Seventeen - Hot.mp4_20220616_131655.815.jpg Seventeen - Hot.mp4_20220616_131722.616.jpg

General
Complete name                  : J:\4KMV\Seventeen - Hot.mp4
Format                         : MPEG-4
Format profile                 : Base Media / Version 2
Codec ID                       : mp42 (mp42/mp41)
File size                      : 2.30 GiB
Duration                       : 3 min 19 s
Overall bit rate mode          : Variable
Overall bit rate               : 98.8 Mb/s
Encoded date                   : UTC 2022-05-25 09:34:39
Tagged date                    : UTC 2022-05-25 09:36:20
TIM                            : 00:00:00:00
TSC                            : 24000
TSZ                            : 1001

Video
ID                             : 1
Format                         : AVC
Format/Info                    : Advanced Video Codec
Format profile                 : High@L5.2
Format settings                : CABAC / 4 Ref Frames
Format settings, CABAC         : Yes
Format settings, Reference fra : 4 frames
Codec ID                       : avc1
Codec ID/Info                  : Advanced Video Coding
Duration                       : 3 min 19 s
Source duration                : 3 min 19 s
Bit rate                       : 98.3 Mb/s
Width                          : 3 840 pixels
Height                         : 2 160 pixels
Display aspect ratio           : 16:9
Frame rate mode                : Constant
Frame rate                     : 23.976 (24000/1001) FPS
Color space                    : YUV
Chroma subsampling             : 4:2:0
Bit depth                      : 8 bits
Scan type                      : Progressive
Bits/(Pixel*Frame)             : 0.494
Stream size                    : 2.29 GiB (100%)
Source stream size             : 2.29 GiB (100%)
Language                       : English
Encoded date                   : UTC 2022-05-25 09:34:39
Tagged date                    : UTC 2022-05-25 09:34:39
Color range                    : Limited
Color primaries                : BT.709
Transfer characteristics       : BT.709
Matrix coefficients            : BT.709
Codec configuration box        : avcC

Audio
ID                             : 2
Format                         : AAC LC
Format/Info                    : Advanced Audio Codec Low Complexity
Codec ID                       : mp4a-40-2
Duration                       : 3 min 19 s
Source duration                : 3 min 19 s
Bit rate mode                  : Variable
Bit rate                       : 317 kb/s
Maximum bit rate               : 421 kb/s
Channel(s)                     : 2 channels
Channel layout                 : L R
Sampling rate                  : 48.0 kHz
Frame rate                     : 46.875 FPS (1024 SPF)
Compression mode               : Lossy
Stream size                    : 7.56 MiB (0%)
Source stream size             : 7.56 MiB (0%)
Language                       : English
Encoded date                   : UTC 2022-05-25 09:34:39
Tagged date                    : UTC 2022-05-25 09:34:39


95e7a875fe2c1d738082d949b00e5d22.jpg

下载地址:

****此区域为收费内容****    需支付 15 金币后可查看立即购买

提供2010-2022年本人多年来珍藏优质[4K、8K、16K(25-120fps)] 高品质韩国(女团)MV、各种演示片、测试片等4K韩国MV“珍藏版”视频硬盘有偿拷贝或网盘分享,最新4K视频每天更新中,需要的联系本楼主!



95e7a875fe2c1d738082d949b00e5d22.jpg

上一篇:[现场 MV] 比莉·艾利斯-17号码头的屋顶(2019年)[2160P/MKV/1.16GB]
下一篇:[4K MV] 2021 Jessi (제시) • Cold Blooded (冷血) 4k [2160P/MP4/4.94GB]
回复

使用道具 举报

2

主题

1168

帖子

3524

积分

4K家园VIP

Rank: 9Rank: 9Rank: 9

积分
3524
发表于 2022-6-19 11:30:12 | 显示全部楼层
我只是路过,不发表意见
回复 支持 反对

使用道具 举报

1

主题

1275

帖子

3841

积分

4K家园VIP

Rank: 9Rank: 9Rank: 9

积分
3841
发表于 2022-6-21 08:38:08 | 显示全部楼层
感谢楼主发帖,前排顶起
回复 支持 反对

使用道具 举报

0

主题

1705

帖子

4667

积分

4K家园VIP

Rank: 9Rank: 9Rank: 9

积分
4667
发表于 2022-6-22 12:42:46 | 显示全部楼层
顶顶更健康
回复 支持 反对

使用道具 举报

1

主题

1369

帖子

4135

积分

4K家园VIP

Rank: 9Rank: 9Rank: 9

积分
4135
发表于 2022-6-23 06:08:05 | 显示全部楼层
好,很好,非常好!
回复 支持 反对

使用道具 举报

4

主题

1667

帖子

4601

积分

4K家园VIP

Rank: 9Rank: 9Rank: 9

积分
4601
发表于 2022-6-23 22:46:59 | 显示全部楼层
为毛老子总也抢不到沙发?!!
回复 支持 反对

使用道具 举报

0

主题

1

帖子

6

积分

新手上路

Rank: 1

积分
6
发表于 2022-6-24 01:36:52 | 显示全部楼层

nudes website

nudes website
回复 支持 反对

使用道具 举报

您需要登录后才可以回帖 登录 | 立即注册

本版积分规则

精彩图文
Archiver|手机版|TAG|Sitemap|新帖|专题|联系我们:邮箱: 4kjia.com@gmail.com   

4k家园   ©2019