[4K MV] 2021 Jessi (제시) • Cold Blooded (冷血) 4k [2160P/MP4/4.94GB]

[复制链接]

2801

主题

3163

帖子

2万

积分

超级版主

Rank: 8Rank: 8

积分
26564
 楼主| 发表于 2022-6-16 13:45:15 | 显示全部楼层 |阅读模式
本帖最后由 叽里呱啦 于 2022-6-20 12:41 编辑

Jessi (제시) - Cold Blooded.mp4_20220616_134002.240.jpg Jessi (제시) - Cold Blooded.mp4_20220616_134025.026.jpg Jessi (제시) - Cold Blooded.mp4_20220616_134034.458.jpg Jessi (제시) - Cold Blooded.mp4_20220616_134110.561.jpg Jessi (제시) - Cold Blooded.mp4_20220616_134118.978.jpg Jessi (제시) - Cold Blooded.mp4_20220616_134134.530.jpg

General
Complete name                  : J:\4K MV\Jessi (제시) - Cold Blooded.mp4
Format                         : MPEG-4
Format profile                 : Base Media / Version 2
Codec ID                       : mp42 (mp42/mp41)
File size                      : 4.94 GiB
Duration                       : 2 min 55 s
Overall bit rate mode          : Variable
Overall bit rate               : 242 Mb/s
Encoded date                   : UTC 2021-10-10 16:59:46
Tagged date                    : UTC 2021-10-10 17:32:11
TIM                            : 00:00:00:00
TSC                            : 24000
TSZ                            : 1001

Video
ID                             : 1
Format                         : AVC
Format/Info                    : Advanced Video Codec
Format profile                 : Main@L5.1
Format settings                : CABAC / 2 Ref Frames
Format settings, CABAC         : Yes
Format settings, Reference fra : 2 frames
Format settings, GOP           : M=1, N=47
Codec ID                       : avc1
Codec ID/Info                  : Advanced Video Coding
Duration                       : 2 min 55 s
Bit rate mode                  : Variable
Bit rate                       : 240 Mb/s
Maximum bit rate               : 768 kb/s
Width                          : 3 840 pixels
Height                         : 2 160 pixels
Display aspect ratio           : 16:9
Frame rate mode                : Constant
Frame rate                     : 23.976 (24000/1001) FPS
Color space                    : YUV
Chroma subsampling             : 4:2:0
Bit depth                      : 8 bits
Scan type                      : Progressive
Bits/(Pixel*Frame)             : 1.207
Stream size                    : 4.91 GiB (99%)
Language                       : English
Encoded date                   : UTC 2021-10-10 16:59:47
Tagged date                    : UTC 2021-10-10 16:59:47
Color range                    : Limited
Color primaries                : BT.709
Transfer characteristics       : BT.709
Matrix coefficients            : BT.709
Codec configuration box        : avcC

Audio
ID                             : 2
Format                         : AAC LC
Format/Info                    : Advanced Audio Codec Low Complexity
Codec ID                       : mp4a-40-2
Duration                       : 2 min 55 s
Source duration                : 2 min 55 s
Bit rate mode                  : Variable
Bit rate                       : 317 kb/s
Maximum bit rate               : 493 kb/s
Channel(s)                     : 2 channels
Channel layout                 : L R
Sampling rate                  : 48.0 kHz
Frame rate                     : 46.875 FPS (1024 SPF)
Compression mode               : Lossy
Stream size                    : 6.64 MiB (0%)
Source stream size             : 6.64 MiB (0%)
Language                       : English
Encoded date                   : UTC 2021-10-10 17:00:08
Tagged date                    : UTC 2021-10-10 17:00:08

下载地址:

****此区域为收费内容****    需支付 25 金币后可查看立即购买

提供2010-2022年本人多年来珍藏优质[4K、8K、16K(25-120fps)] 高品质韩国(女团)MV、各种演示片、测试片等4K韩国MV“珍藏版”视频硬盘有偿拷贝或网盘分享,最新4K视频每天更新中,需要的联系本楼主!


Jessi (제시) • Cold Blooded 冷血[2021, K-Pop, WEB-DL, 2160p] .torrent

12.82 KB, 下载次数: 23, 下载积分: 金币 -10


上一篇:[4K MV] 2022 Seventeen - Hot - 4k [2160P/MP4/2.26GB]
下一篇:[4K MV] 2022 Jessi (제시) - Zoom 4k [2160P/MP4/3.94GB]
回复

使用道具 举报

0

主题

1310

帖子

3946

积分

4K家园VIP

Rank: 9Rank: 9Rank: 9

积分
3946
发表于 2022-6-16 13:45:21 | 显示全部楼层
发发呆,回回帖,工作结束~
回复 支持 反对

使用道具 举报

4

主题

1428

帖子

4120

积分

中级会员

Rank: 4

积分
4120
发表于 2022-6-17 04:22:20 | 显示全部楼层
看起来不错
回复 支持 反对

使用道具 举报

3

主题

1303

帖子

3931

积分

4K家园VIP

Rank: 9Rank: 9Rank: 9

积分
3931
发表于 2022-6-17 08:58:13 来自手机 | 显示全部楼层
占位编辑
回复 支持 反对

使用道具 举报

0

主题

1723

帖子

4773

积分

4K家园VIP

Rank: 9Rank: 9Rank: 9

积分
4773
发表于 2022-6-17 18:59:25 | 显示全部楼层
怎么这么大,希望我电视能看啊
回复 支持 反对

使用道具 举报

0

主题

1729

帖子

4701

积分

4K家园VIP

Rank: 9Rank: 9Rank: 9

积分
4701
发表于 2022-6-18 18:22:52 | 显示全部楼层
秀起来~
回复 支持 反对

使用道具 举报

您需要登录后才可以回帖 登录 | 立即注册

本版积分规则

精彩图文
Archiver|手机版|TAG|Sitemap|新帖|专题|联系我们:邮箱: 4kjia.com@gmail.com   

4k家园   ©2019