[4K MV] 2022 Jessi (제시) - Zoom 4k [2160P/MP4/3.94GB]

[复制链接]

2800

主题

3162

帖子

2万

积分

超级版主

Rank: 8Rank: 8

积分
26550
 楼主| 发表于 7 天前 | 显示全部楼层 |阅读模式
本帖最后由 叽里呱啦 于 2022-6-20 12:42 编辑

Jessi (제시) - Zoom.mp4_20220616_135046.931.jpg Jessi (제시) - Zoom.mp4_20220616_135055.651.jpg Jessi (제시) - Zoom.mp4_20220616_135111.083.jpg Jessi (제시) - Zoom.mp4_20220616_135120.611.jpg Jessi (제시) - Zoom.mp4_20220616_135148.178.jpg Jessi (제시) - Zoom.mp4_20220616_135201.402.jpg

General
Complete name                  : J:\4K MV\Jessi (제시) - Zoom.mp4
Format                         : MPEG-4
Format profile                 : Base Media / Version 2
Codec ID                       : mp42 (mp42/mp41)
File size                      : 3.94 GiB
Duration                       : 3 min 2 s
Overall bit rate mode          : Variable
Overall bit rate               : 185 Mb/s
Encoded date                   : UTC 2022-04-12 18:14:18
Tagged date                    : UTC 2022-04-12 18:18:56
TIM                            : 00:00:02:01
TSC                            : 24000
TSZ                            : 1001

Video
ID                             : 1
Format                         : AVC
Format/Info                    : Advanced Video Codec
Format profile                 : Main@L5.1
Format settings                : CABAC / 2 Ref Frames
Format settings, CABAC         : Yes
Format settings, Reference fra : 2 frames
Codec ID                       : avc1
Codec ID/Info                  : Advanced Video Coding
Duration                       : 3 min 2 s
Bit rate mode                  : Variable
Bit rate                       : 184 Mb/s
Maximum bit rate               : 768 kb/s
Width                          : 3 840 pixels
Height                         : 2 160 pixels
Display aspect ratio           : 16:9
Frame rate mode                : Constant
Frame rate                     : 23.976 (24000/1001) FPS
Color space                    : YUV
Chroma subsampling             : 4:2:0
Bit depth                      : 8 bits
Scan type                      : Progressive
Bits/(Pixel*Frame)             : 0.923
Stream size                    : 3.90 GiB (99%)
Language                       : English
Encoded date                   : UTC 2022-04-12 18:14:18
Tagged date                    : UTC 2022-04-12 18:14:18
Color range                    : Limited
Color primaries                : BT.709
Transfer characteristics       : BT.709
Matrix coefficients            : BT.709
Codec configuration box        : avcC

Audio
ID                             : 2
Format                         : AAC LC
Format/Info                    : Advanced Audio Codec Low Complexity
Codec ID                       : mp4a-40-2
Duration                       : 3 min 2 s
Source duration                : 3 min 2 s
Bit rate mode                  : Variable
Bit rate                       : 317 kb/s
Maximum bit rate               : 407 kb/s
Channel(s)                     : 2 channels
Channel layout                 : L R
Sampling rate                  : 48.0 kHz
Frame rate                     : 46.875 FPS (1024 SPF)
Compression mode               : Lossy
Stream size                    : 6.91 MiB (0%)
Source stream size             : 6.91 MiB (0%)
Language                       : English
Encoded date                   : UTC 2022-04-12 18:14:20
Tagged date                    : UTC 2022-04-12 18:14:20


下载地址:

****此区域为收费内容****    需支付 25 金币后可查看立即购买

提供2010-2022年本人多年来珍藏优质[4K、8K、16K(25-120fps)] 高品质韩国(女团)MV、各种演示片、测试片等4K韩国MV“珍藏版”视频硬盘有偿拷贝或网盘分享,最新4K视频每天更新中,需要的联系本楼主!




Jessi (제시) • Zoom [2022, K-Pop, WEB-DL, 2160p] [rutracker-6216650].torrent

20.15 KB, 下载次数: 0, 下载积分: 金币 -10


上一篇:[4K MV] 2021 Jessi (제시) • Cold Blooded (冷血) 4k [2160P/MP4/4.94GB]
下一篇:[4K MV] Joy(红色天鹅绒)-你好 [2160P/MP4/3.20GB]
回复

使用道具 举报

4

主题

1630

帖子

4490

积分

4K家园VIP

Rank: 9Rank: 9Rank: 9

积分
4490
发表于 7 天前 | 显示全部楼层
多谢楼主分享
回复 支持 反对

使用道具 举报

1

主题

1347

帖子

4059

积分

4K家园VIP

Rank: 9Rank: 9Rank: 9

积分
4059
发表于 6 天前 | 显示全部楼层
感谢楼主的分享,还是阔以滴
回复 支持 反对

使用道具 举报

您需要登录后才可以回帖 登录 | 立即注册

本版积分规则

精彩图文
Archiver|手机版|TAG|Sitemap|新帖|专题|联系我们:邮箱: 4kjia.com@gmail.com   

4k家园   ©2019