[4K MV] Joy(红色天鹅绒)-你好 [2160P/MP4/3.20GB]

[复制链接]

2846

主题

3211

帖子

2万

积分

超级版主

Rank: 8Rank: 8

积分
27159
 楼主| 发表于 2022-6-17 10:53:17 | 显示全部楼层 |阅读模式
Joy (Red Velvet) - Hello.mp4_20220617_103137.272.jpg Joy (Red Velvet) - Hello.mp4_20220617_103202.816.jpg Joy (Red Velvet) - Hello.mp4_20220617_103207.312.jpg Joy (Red Velvet) - Hello.mp4_20220617_103223.585.jpg Joy (Red Velvet) - Hello.mp4_20220617_103254.464.jpg Joy (Red Velvet) - Hello.mp4_20220617_103352.201.jpg

General
Complete name                  : J:\4KMV\Joy (Red Velvet) - Hello.mp4
Format                         : MPEG-4
Format profile                 : Base Media / Version 2
Codec ID                       : mp42 (mp42/mp41)
File size                      : 3.20 GiB
Duration                       : 4 min 34 s
Overall bit rate mode          : Variable
Overall bit rate               : 100 Mb/s
Encoded date                   : UTC 2021-05-31 04:08:10
Tagged date                    : UTC 2021-05-31 05:02:10
TIM                            : 00:00:00:00
TSC                            : 24000
TSZ                            : 1001

Video
ID                             : 1
Format                         : AVC
Format/Info                    : Advanced Video Codec
Format profile                 : Main@L5.1
Format settings                : CABAC / 4 Ref Frames
Format settings, CABAC         : Yes
Format settings, Reference fra : 4 frames
Codec ID                       : avc1
Codec ID/Info                  : Advanced Video Coding
Duration                       : 4 min 34 s
Bit rate                       : 99.9 Mb/s
Width                          : 3 840 pixels
Height                         : 2 160 pixels
Display aspect ratio           : 16:9
Frame rate mode                : Constant
Frame rate                     : 23.976 (24000/1001) FPS
Color space                    : YUV
Chroma subsampling             : 4:2:0
Bit depth                      : 8 bits
Scan type                      : Progressive
Bits/(Pixel*Frame)             : 0.503
Stream size                    : 3.19 GiB (100%)
Language                       : English
Encoded date                   : UTC 2021-05-31 04:08:14
Tagged date                    : UTC 2021-05-31 04:08:14
Color range                    : Limited
Color primaries                : BT.709
Transfer characteristics       : BT.709
Matrix coefficients            : BT.709
Codec configuration box        : avcC

Audio
ID                             : 2
Format                         : AAC LC
Format/Info                    : Advanced Audio Codec Low Complexity
Codec ID                       : mp4a-40-2
Duration                       : 4 min 34 s
Source duration                : 4 min 34 s
Bit rate mode                  : Variable
Bit rate                       : 317 kb/s
Maximum bit rate               : 419 kb/s
Channel(s)                     : 2 channels
Channel layout                 : L R
Sampling rate                  : 48.0 kHz
Frame rate                     : 46.875 FPS (1024 SPF)
Compression mode               : Lossy
Stream size                    : 10.4 MiB (0%)
Source stream size             : 10.4 MiB (0%)
Language                       : English
Encoded date                   : UTC 2021-05-31 04:08:22
Tagged date                    : UTC 2021-05-31 04:08:22
下载地址:

****此区域为收费内容****    需支付 15 金币后可查看立即购买

提供2010-2022年本人多年来珍藏优质[4K、8K、16K(25-120fps)] 高品质韩国(女团)MV、各种演示片、测试片等4K韩国MV“珍藏版”视频硬盘有偿拷贝或网盘分享,最新4K视频每天更新中,需要的联系本楼主!





上一篇:[4K MV] 2022 Jessi (제시) - Zoom 4k [2160P/MP4/3.94GB]
下一篇:[4K MV] 2022 GOT - Step Back(后退一步) [2160P/MP4/1.52GB]
回复

使用道具 举报

1

主题

1379

帖子

3969

积分

4K家园VIP

Rank: 9Rank: 9Rank: 9

积分
3969
发表于 2022-6-17 10:53:21 | 显示全部楼层
传说中的沙发???哇卡卡
回复 支持 反对

使用道具 举报

1

主题

1401

帖子

4039

积分

4K家园VIP

Rank: 9Rank: 9Rank: 9

积分
4039
发表于 2022-6-17 16:07:16 | 显示全部楼层
4K家园不错,希望这种资源越多越好
回复 支持 反对

使用道具 举报

0

主题

1665

帖子

4625

积分

4K家园VIP

Rank: 9Rank: 9Rank: 9

积分
4625
发表于 2022-6-17 20:49:32 | 显示全部楼层
有4K版啦,下个看下
回复 支持 反对

使用道具 举报

0

主题

1180

帖子

3554

积分

4K家园VIP

Rank: 9Rank: 9Rank: 9

积分
3554
发表于 2022-6-17 21:58:52 | 显示全部楼层
好,很好,非常好!
回复 支持 反对

使用道具 举报

45

主题

1486

帖子

4306

积分

4K家园VIP

Rank: 9Rank: 9Rank: 9

积分
4306
发表于 2022-6-17 22:22:11 | 显示全部楼层
OMG!介是啥东东!!!
回复 支持 反对

使用道具 举报

0

主题

30

帖子

674

积分

4K家园VIP

Rank: 9Rank: 9Rank: 9

积分
674
发表于 2022-6-18 16:21:12 来自手机 | 显示全部楼层
谢谢分享谢谢分享
回复 支持 反对

使用道具 举报

您需要登录后才可以回帖 登录 | 立即注册

本版积分规则

精彩图文
Archiver|手机版|TAG|Sitemap|新帖|专题|联系我们:邮箱: 4kjia.com@gmail.com   

4k家园   ©2019