[4K电影] 周末惊魂 / Mid-Century (2022) 4K高清版本下载

[复制链接]

2299

主题

2448

帖子

1万

积分

超级版主

Rank: 8Rank: 8

积分
17752
 楼主| 发表于 2022-6-17 14:31:29 | 显示全部楼层 |阅读模式
QQ图片20220617141223_副本.png

◎译  名 周末惊魂
◎片  名 Mid-Century
◎年  代 2022
◎产  地 美国
◎类  别 剧情 / 悬疑 / 惊悚
◎语  言 英语
◎上映日期 2022-06-17(美国)
◎IMDb链接 https://www.imdb.com/title/tt6821198/
◎豆瓣链接 https://movie.douban.com/subject/35627579/
◎片  长 105分钟
◎导  演 索尼娅·奥·哈拉 Sonja O'Hara
◎演  员 布鲁斯·邓恩 Bruce Dern
       史蒂芬·朗 Stephen Lang
       夏恩·韦斯特 Shane West
       凡妮莎·威廉斯 Vanessa Williams
       丹尼尔V·格拉劳 Daniel V. Graulau
       莎拉·海伊 Sarah Hay
       比尔·乔特 Bill Chott
       索尼娅·奥·哈拉 Sonja O'Hara


◎简  介

  当丈夫发现房主是一个精神病患者,后院里藏着妻子的秘密和设计时,丈夫和妻子在一个世纪中期的现代度假租房里度过的周末变得非常危险。

Video
ID : 1
Format : HEVC
Format/Info : High Efficiency Video Coding
Format profile : Main 10@L5@High
Codec ID : V_MPEGH/ISO/HEVC
Duration : 1 h 45 min
Bit rate : 11.9 Mb/s
Width : 3 828 pixels
Height : 1 908 pixels
Display aspect ratio : 2.006
Frame rate mode : Constant
Frame rate : 23.976 FPS
Color space : YUV
Chroma subsampling : 4:2:0
Bit depth : 10 bits
Bits/(Pixel*Frame) : 0.068
Stream size : 8.73 GiB (95%)
Language : English
Default : Yes
Forced : No
Color range : Limited
Color primaries : BT.709
Transfer characteristics : BT.709
Matrix coefficients : BT.709

Audio
ID : 2
Format : E-AC-3
Format/Info : Enhanced AC-3
Commercial name : Dolby Digital Plus
Codec ID : A_EAC3
Duration : 1 h 45 min
Bit rate mode : Constant
Bit rate : 640 kb/s
Channel(s) : 6 channels
Channel layout : L R C LFE Ls Rs
Sampling rate : 48.0 kHz
Frame rate : 31.250 FPS (1536 SPF)
Compression mode : Lossy
Stream size : 481 MiB (5%)
Language : English
Service kind : Complete Main
Default : Yes
Forced : No

Text #1
ID : 3
Format : UTF-8
Codec ID : S_TEXT/UTF8
Codec ID/Info : UTF-8 Plain Text
Duration : 1 h 39 min
Bit rate : 39 b/s
Count of elements : 956
Stream size : 28.6 KiB (0%)
Language : English
Default : Yes
Forced : No

Text #2
ID : 4
Format : UTF-8
Codec ID : S_TEXT/UTF8
Codec ID/Info : UTF-8 Plain Text
Duration : 1 h 40 min
Bit rate : 46 b/s
Count of elements : 1186
Stream size : 33.9 KiB (0%)
Title : SDH
Language : English
Default : No
Forced : No

Text #3
ID : 5
Format : UTF-8
Codec ID : S_TEXT/UTF8
Codec ID/Info : UTF-8 Plain Text
Duration : 1 h 4 min
Bit rate : 1 b/s
Count of elements : 15
Stream size : 582 Bytes (0%)
Title : Forced
Language : French
Default : No
Forced : Yes

Menu
00:00:00.000 : en:Chapter 01
00:14:59.816 : en:Chapter 02
00:27:24.894 : en:Chapter 03
00:41:42.544 : en:Chapter 04
00:55:14.773 : en:Chapter 05
01:09:35.383 : en:Chapter 06
01:25:47.022 : en:Chapter 07
01:40:42.959 : en:Chapter 08


资源速度为零或资源敏感被和谐时,推荐使用qBittorrent等下载软件,有条件的推荐115更好的下载软件!

下载地址:


游客,如果您要查看本帖隐藏内容请回复






上一篇:恰恰丝滑 (简繁中字) Cha Cha Real Smooth (2022) 4K高清版本下载
下一篇:好邻居 / The Good Neighbor (2021) 4K高清版本下载
回复

使用道具 举报

2

主题

1431

帖子

4266

积分

4K家园VIP

Rank: 9Rank: 9Rank: 9

积分
4266
发表于 2022-6-17 14:31:32 来自手机 | 显示全部楼层
very good
回复 支持 反对

使用道具 举报

3

主题

1304

帖子

3930

积分

4K家园VIP

Rank: 9Rank: 9Rank: 9

积分
3930
发表于 2022-6-18 04:45:27 | 显示全部楼层
啥玩应呀
回复 支持 反对

使用道具 举报

0

主题

2

帖子

12

积分

新手上路

Rank: 1

积分
12
发表于 2022-6-18 10:42:43 | 显示全部楼层
nice ar
回复

使用道具 举报

0

主题

46

帖子

1533

积分

4K家园VIP

Rank: 9Rank: 9Rank: 9

积分
1533
发表于 2022-6-18 13:56:02 | 显示全部楼层
谢谢分享!
回复

使用道具 举报

2

主题

1433

帖子

4119

积分

4K家园VIP

Rank: 9Rank: 9Rank: 9

积分
4119
发表于 2022-6-19 05:28:25 | 显示全部楼层
佩服佩服!
回复 支持 反对

使用道具 举报

0

主题

3

帖子

30

积分

新手上路

Rank: 1

积分
30
发表于 2022-6-19 09:20:46 | 显示全部楼层

very good
回复

使用道具 举报

1

主题

1278

帖子

3852

积分

4K家园VIP

Rank: 9Rank: 9Rank: 9

积分
3852
发表于 2022-6-21 10:43:58 | 显示全部楼层
支持你哈...................................
回复 支持 反对

使用道具 举报

2

主题

1363

帖子

4105

积分

4K家园VIP

Rank: 9Rank: 9Rank: 9

积分
4105
发表于 2022-6-22 12:51:04 来自手机 | 显示全部楼层
4K家园资源最近貌似越来越多了
回复 支持 反对

使用道具 举报

0

主题

3

帖子

12

积分

新手上路

Rank: 1

积分
12
发表于 2022-7-14 03:28:39 | 显示全部楼层
大概354东风本父34w'er田f热污染w'r人体w'ered'frr's日4二维图4w'er
回复 支持 反对

使用道具 举报

您需要登录后才可以回帖 登录 | 立即注册

本版积分规则

精彩图文
Archiver|手机版|TAG|Sitemap|新帖|专题|联系我们:邮箱: 4kjia.com@gmail.com   

4k家园   ©2019