[4K电影] 杰瑞和玛姬生活阔绰/Jerry and Marge Go Large (2022)4K高清版本下载

[复制链接]

2299

主题

2448

帖子

1万

积分

超级版主

Rank: 8Rank: 8

积分
17752
 楼主| 发表于 2022-6-17 14:48:41 | 显示全部楼层 |阅读模式
QQ图片20220617141957_副本.png

◎译  名 杰瑞和玛姬生活阔绰 / 杰瑞与玛吉极致享乐
◎片  名 Jerry and Marge Go Large
◎年  代 2022
◎产  地 美国
◎类  别 剧情 / 喜剧 / 传记
◎语  言 英语
◎上映日期 2022-06-14(翠贝卡电影节) / 2022-06-17(美国网络)
◎IMDb评分  9.0/10 from 14 users
◎IMDb链接  https://www.imdb.com/title/tt8323668/
◎豆瓣评分 0/10 from 0 users
◎豆瓣链接 https://movie.douban.com/subject/35503077/
◎导  演 大卫·弗兰科尔 David Frankel
◎编  剧 布拉德·科普兰 Brad Copeland
◎演  员 布莱恩·科兰斯顿 Bryan Cranston
       安妮特·贝宁 Annette Bening
       拉里·威尔莫 Larry Wilmore
       雷恩·威尔森 Rainn Wilson
       迈克尔·麦基恩 Michael McKean
       安娜·坎普 Anna Camp
       杰克·麦克道曼 Jake McDorman
       罗达·格里菲丝 Rhoda Griffis
       梅拉尼·休伯特 Mellanie Hubert
       安·哈拉达 Ann Harada
       安娜·科鲁兹·凯恩 Ana Cruz Kayne
       罗伯特·普拉尔戈 Robert Pralgo
       德温·麦克道维尔 Devyn McDowell
       乔·皮斯托内 Joe Pistone
       让·克劳德·卢耶 Jean Claude Leuyer
       林赛·莫泽 Lindsey Moser
       肯尼·阿方索 Kenny Alfonso
       苏巴什·曼达尔 Subhash Mandal


◎简  介


  本片改编自杰森·法冈在《赫芬顿邮报》发表的文章 ,讲述了一桩真实故事:退休的杰瑞·塞尔比发现了马萨诸塞州彩票中的一个数学漏洞,在妻子玛吉的帮助下,赢得了2700万美元。他们用这笔钱振兴了自己的密歇根小镇。

Video
ID : 1
Format : HEVC
Format/Info : High Efficiency Video Coding
Format profile : Main 10@L5@Main
HDR format : Dolby Vision, Version 1.0, dvhe.05.06, BL+RPU
Codec ID : V_MPEGH/ISO/HEVC
Duration : 1 h 36 min
Bit rate : 13.9 Mb/s
Width : 3 840 pixels
Height : 2 160 pixels
Display aspect ratio : 16:9
Frame rate mode : Constant
Frame rate : 23.976 (24000/1001) FPS
Color space : YUV
Chroma subsampling : 4:2:0 (Type 0)
Bit depth : 10 bits
Bits/(Pixel*Frame) : 0.070
Stream size : 9.34 GiB (97%)
Default : Yes
Forced : No
Color range : Full

Audio
ID : 2
Format : E-AC-3
Format/Info : Enhanced AC-3
Commercial name : Dolby Digital Plus
Codec ID : A_EAC3
Duration : 1 h 36 min
Bit rate mode : Constant
Bit rate : 192 kb/s
Channel(s) : 6 channels
Channel layout : L R C LFE Ls Rs
Sampling rate : 48.0 kHz
Frame rate : 31.250 FPS (1536 SPF)
Compression mode : Lossy
Stream size : 132 MiB (1%)
Language : English
Service kind : Complete Main
Default : Yes
Forced : No

Text
ID : 3
Format : UTF-8
Codec ID : S_TEXT/UTF8
Codec ID/Info : UTF-8 Plain Text
Title : English [SDH]
Language : English
Default : No
Forced : No


资源速度为零或资源敏感被和谐时,推荐使用qBittorrent等下载软件,有条件的推荐115更好的下载软件!

下载地址:


游客,如果您要查看本帖隐藏内容请回复

游客,如果您要查看本帖隐藏内容请回复

游客,如果您要查看本帖隐藏内容请回复




上一篇:好邻居 / The Good Neighbor (2021) 4K高清版本下载
下一篇:夏洛特的网 / Charlotte's Web (2006) 4K高清版本下载
回复

使用道具 举报

2

主题

1410

帖子

4252

积分

4K家园VIP

Rank: 9Rank: 9Rank: 9

积分
4252
发表于 2022-6-17 14:48:46 | 显示全部楼层
OMG!介是啥东东!!!
回复 支持 反对

使用道具 举报

0

主题

1

帖子

6

积分

新手上路

Rank: 1

积分
6
发表于 2022-6-17 19:21:51 | 显示全部楼层
谢谢分享哦
回复 支持 反对

使用道具 举报

0

主题

468

帖子

2853

积分

注册会员

Rank: 2

积分
2853
发表于 2022-6-18 11:43:38 | 显示全部楼层
开心开心,谢谢分享
回复 支持 反对

使用道具 举报

0

主题

1349

帖子

4075

积分

4K家园VIP

Rank: 9Rank: 9Rank: 9

积分
4075
发表于 2022-6-19 20:47:28 | 显示全部楼层
高手啊
回复 支持 反对

使用道具 举报

2

主题

1425

帖子

4127

积分

4K家园VIP

Rank: 9Rank: 9Rank: 9

积分
4127
发表于 2022-6-27 12:56:35 来自手机 | 显示全部楼层
LZ是天才,坚定完毕
回复 支持 反对

使用道具 举报

2

主题

1359

帖子

3913

积分

4K家园VIP

Rank: 9Rank: 9Rank: 9

积分
3913
发表于 2022-6-30 14:21:21 来自手机 | 显示全部楼层
LZ帖子不给力,勉强给回复下吧
回复 支持 反对

使用道具 举报

0

主题

1369

帖子

4121

积分

4K家园VIP

Rank: 9Rank: 9Rank: 9

积分
4121
发表于 2022-7-12 00:42:58 | 显示全部楼层
回个帖子,下班咯~
回复 支持 反对

使用道具 举报

0

主题

1

帖子

10

积分

新手上路

Rank: 1

积分
10
发表于 2022-7-30 15:28:17 | 显示全部楼层
感谢楼主分享
回复 支持 反对

使用道具 举报

您需要登录后才可以回帖 登录 | 立即注册

本版积分规则

精彩图文
Archiver|手机版|TAG|Sitemap|新帖|专题|联系我们:邮箱: 4kjia.com@gmail.com   

4k家园   ©2019