参与其中 / The Offer(2022) 第一季/全10集/4K高清版本下载

[复制链接]

154

主题

175

帖子

1746

积分

版主

Rank: 7Rank: 7Rank: 7

积分
1746
 楼主| 发表于 2022-6-18 09:34:40 | 显示全部楼层 |阅读模式
本帖最后由 美剧小虾 于 2022-6-18 10:06 编辑

d83b821d05a6fc2ecec85d0d13e13b57_副本.jpg
◎译  名 参与其中/提议
◎片  名 The Offer
◎年  代 2022
◎产  地 美国
◎类  别 剧情/传记
◎语  言 英语
◎上映日期 2022-04-28(美国)
◎IMDb评分  8.7/10 from 8358 users
◎IMDb链接  https://www.imdb.com/title/tt13111040/
◎豆瓣评分 8.4/10 from 196 users
◎豆瓣链接 https://douban.com/subject/35274396/
◎集  数 10
◎导  演 德克斯特·弗莱彻 Dexter Fletcher
◎编  剧 迈克尔·托尔金 Michael Tolkin / 尼琪·托斯卡诺 Nikki Toscano / 莱斯利·格雷夫 Leslie Greif / 艾伯特·S·拉迪 Albert S. Ruddy
◎主  演 迈尔斯·特勒 Miles Teller
       马修·古迪 Matthew Goode
       朱诺·坦普尔 Juno Temple
       吉奥瓦尼·瑞比西 Giovanni Ribisi
       丹·福勒 Dan Fogler
       伯恩·戈曼 Burn Gorman
       科林·汉克斯 Colin Hanks
       帕特里克·加洛 Patrick Gallo
       乔什·祖克曼 Josh Zuckerman
       诺拉·阿娜泽德尔 Nora Arnezeder
       杰克·坎纳瓦尔 Jake Cannavale
       弗兰克·约翰·休斯 Frank John Hughes
       贾斯汀·钱伯斯 Justin Chambers
       丹尼·努齐 Danny Nucci
       卢·弗里基诺 Lou Ferrigno
       詹姆斯·马迪欧 James Madio
       保罗·麦克兰尼 Paul McCrane
       迈克尔·里斯波利 Michael Rispoli
       斯蒂芬妮·柯尼希 Stephanie Koenig
       安东尼·斯科迪 Anthony Skordi
       约瑟夫·罗素 Joseph Russo
       梅雷迪思·加勒特森 Meredith Garretson
       朗·罗格 Ron Roggé
       小戴维·M·桑多瓦尔 David M Sandoval Jr.
       雅科夫·科隆塔罗夫 Yakov Kolontarov
       迈克尔·甘多菲尼 Michael Gandolfini
       艾里克·巴弗尔 Eric Balfour
       路易·曼迪勒 Louis Mandylor
       柯克·埃斯沃多 Kirk Acevedo
       罗斯·麦克科尔 Ross McCall
       迈克尔·兰德斯 Michael Landes
       米密·吉安诺普洛斯 Mimi Gianopulos
       雷恩·哈珀 Raelynn Harper
       维罗妮卡·阿利奇诺 Veronica Alicino
       萨尔·兰迪 Sal Landi
       安东尼·伊波利托 Anthony Ippolito
       约翰尼·曼斯巴赫 Johnny Mansbach


◎简  介


  奥斯卡获奖制片人阿尔伯特·S·鲁迪(AlbertS.Ruddy)之前从未透露过制作《教父》(1972)的经历。

Video
ID : 1
Format : HEVC
Format/Info : High Efficiency Video Coding
Format profile : Main 10@L5@High
HDR format : Dolby Vision, Version 1.0, dvhe.05.06, BL+RPU
Codec ID : V_MPEGH/ISO/HEVC
Duration : 59 min 13 s
Bit rate : 24.3 Mb/s
Width : 3 840 pixels
Height : 1 606 pixels
Display aspect ratio : 2.40:1
Frame rate mode : Constant
Frame rate : 23.976 (24000/1001) FPS
Color space : YUV
Chroma subsampling : 4:2:0
Bit depth : 10 bits
Bits/(Pixel*Frame) : 0.164
Stream size : 10.0 GiB (96%)
Language : English
Default : Yes
Forced : No

Audio
ID : 2
Format : AC-3
Format/Info : Audio Coding 3
Commercial name : Dolby Digital
Codec ID : A_AC3
Duration : 59 min 13 s
Bit rate mode : Constant
Bit rate : 384 kb/s
Channel(s) : 6 channels
Channel layout : L R C LFE Ls Rs
Sampling rate : 48.0 kHz
Frame rate : 31.250 FPS (1536 SPF)
Compression mode : Lossy
Stream size : 163 MiB (2%)
Language : English
Service kind : Complete Main
Default : Yes
Forced : No

Text
ID : 3
Format : UTF-8
Codec ID : S_TEXT/UTF8
Codec ID/Info : UTF-8 Plain Text
Title : English
Language : English
Default : No
Forced : No

下载地址:

游客,如果您要查看本帖隐藏内容请回复

游客,如果您要查看本帖隐藏内容请回复

游客,如果您要查看本帖隐藏内容请回复

游客,如果您要查看本帖隐藏内容请回复




dbea2f0c56f6baba6e758d207edbbdcc_副本.jpg

撕裂记忆体(31.18GB)The.Lazarus.Project.S01.2160p.STAN.WEB-DL.DDP5.1.x265-SMURF.torrent

40.38 KB, 下载次数: , 下载积分: 金币 -10

售价: 9 金币  [记录]  [购买]


上一篇:德黑兰(简繁粤中字)Tehran第二季/全8集(2022)/4K高清版本下载
下一篇:撕裂记忆体/The Lazarus Project第一季/全8集(2022)/4K高清版本下载
回复

使用道具 举报

2

主题

1423

帖子

4089

积分

4K家园VIP

Rank: 9Rank: 9Rank: 9

积分
4089
发表于 2022-6-18 09:35:42 | 显示全部楼层
佩服佩服!
回复 支持 反对

使用道具 举报

13

主题

1216

帖子

3620

积分

4K家园VIP

Rank: 9Rank: 9Rank: 9

积分
3620
发表于 2022-6-18 09:42:08 | 显示全部楼层
发发呆,回回帖,工作结束~
回复 支持 反对

使用道具 举报

6

主题

1436

帖子

4184

积分

中级会员

Rank: 4

积分
4184
发表于 2022-6-18 10:31:05 来自手机 | 显示全部楼层
支持,赞一个
回复 支持 反对

使用道具 举报

40

主题

1547

帖子

4431

积分

4K家园VIP

Rank: 9Rank: 9Rank: 9

积分
4431
发表于 2022-6-18 11:04:55 | 显示全部楼层
支持下楼主,顶一个
回复 支持 反对

使用道具 举报

59

主题

1563

帖子

4485

积分

4K家园VIP

Rank: 9Rank: 9Rank: 9

积分
4485
发表于 2022-6-18 11:11:07 | 显示全部楼层
纯粹路过,没任何兴趣,仅仅是看在老用户份上回复一下
回复 支持 反对

使用道具 举报

0

主题

1

帖子

6

积分

新手上路

Rank: 1

积分
6
发表于 4 天前 来自手机 | 显示全部楼层
谢谢楼主的分享
回复 支持 反对

使用道具 举报

您需要登录后才可以回帖 登录 | 立即注册

本版积分规则

精彩图文
Archiver|手机版|TAG|Sitemap|新帖|专题|联系我们:邮箱: 4kjia.com@gmail.com   

4k家园   ©2019