卡戴珊家族 / The Kardashians (2022) 第一季/全10集/4K高清版本下载

[复制链接]

154

主题

175

帖子

1746

积分

版主

Rank: 7Rank: 7Rank: 7

积分
1746
 楼主| 发表于 2022-6-18 10:19:19 | 显示全部楼层 |阅读模式

104866b97f9cee7a6d457f25f892589a_副本.jpg

◎译  名 卡戴珊家族/卡戴珊一家
◎片  名 The Kardashians
◎年  代 2022
◎产  地 美国/英国
◎类  别 真人秀
◎语  言 英语
◎上映日期 2022-04-14(美国)
◎IMDb评分  4.5/10 from 1509 users
◎IMDb链接  https://www.imdb.com/title/tt15791630/
◎豆瓣评分 7.6/10 from 1372 users
◎豆瓣链接 https://douban.com/subject/35763786/
◎集  数 10
◎主  演 金·卡戴珊 Kim Kardashian
       凯莉·詹娜 Kylie Jenner
       肯多尔·詹娜 Kendall Jenner
       科勒·卡戴珊 Khloe Kardashian
       葛妮·卡戴珊 Kourtney Kardashian
       克莉丝·詹纳 Kris Jenner


◎简  介

  《卡戴珊》将于4月14日在Hulu、Disney+International和Star+拉丁美洲首映。跟随卡戴珊家族庆祝新的冒险,引领他们的新常态;母亲身份、人际关系和职业目标。

Video
ID : 1
Format : HEVC
Format/Info : High Efficiency Video Coding
Format profile : Main 10@L5.1@Main
HDR format : Dolby Vision, Version 1.0, dvhe.08.06, BL+RPU, HDR10 compatible / SMPTE ST 2094 App 4, Version 1, HDR10+ Profile B compatible
Codec ID : V_MPEGH/ISO/HEVC
Duration : 44 min 42 s
Bit rate : 11.1 Mb/s
Width : 3 840 pixels
Height : 2 160 pixels
Display aspect ratio : 16:9
Frame rate mode : Constant
Frame rate : 23.976 (24000/1001) FPS
Color space : YUV
Chroma subsampling : 4:2:0 (Type 2)
Bit depth : 10 bits
Bits/(Pixel*Frame) : 0.056
Stream size : 3.47 GiB (98%)
Default : Yes
Forced : No
Color range : Limited
Color primaries : BT.2020
Transfer characteristics : PQ
Matrix coefficients : BT.2020 non-constant
Mastering display color primaries : Display P3
Mastering display luminance : min: 0.0001 cd/m2, max: 1000 cd/m2
Maximum Content Light Level : 996 cd/m2
Maximum Frame-Average Light Level : 371 cd/m2

Audio
ID : 2
Format : E-AC-3
Format/Info : Enhanced AC-3
Commercial name : Dolby Digital Plus
Codec ID : A_EAC3
Duration : 44 min 42 s
Bit rate mode : Constant
Bit rate : 256 kb/s
Channel(s) : 6 channels
Channel layout : L R C LFE Ls Rs
Sampling rate : 48.0 kHz
Frame rate : 31.250 FPS (1536 SPF)
Compression mode : Lossy
Stream size : 81.9 MiB (2%)
Language : English
Service kind : Complete Main
Default : Yes
Forced : No

Text #1
ID : 3
Format : UTF-8
Codec ID : S_TEXT/UTF8
Codec ID/Info : UTF-8 Plain Text
Duration : 44 min 28 s
Bit rate : 109 b/s
Count of elements : 911
Stream size : 35.8 KiB (0%)
Language : English
Default : No
Forced : No

Text #2
ID : 4
Format : UTF-8
Codec ID : S_TEXT/UTF8
Codec ID/Info : UTF-8 Plain Text
Duration : 44 min 28 s
Bit rate : 116 b/s
Count of elements : 967
Stream size : 37.9 KiB (0%)
Title : SDH
Language : English
Default : No
Forced : No

Text #3
ID : 5
Format : UTF-8
Codec ID : S_TEXT/UTF8
Codec ID/Info : UTF-8 Plain Text
Duration : 43 min 43 s
Bit rate : 115 b/s
Count of elements : 905
Stream size : 37.0 KiB (0%)
Language : Spanish
Default : No
Forced : No

Text #4
ID : 6
Format : UTF-8
Codec ID : S_TEXT/UTF8
Codec ID/Info : UTF-8 Plain Text
Duration : 43 min 47 s
Bit rate : 122 b/s
Count of elements : 976
Stream size : 39.3 KiB (0%)
Title : SDH
Language : Spanish
Default : No
Forced : No

Menu
00:00:00.000 : en:Chapter 1
00:11:40.007 : en:Chapter 2
00:20:57.015 : en:Chapter 3
00:28:00.008 : en:Chapter 4
00:34:19.010 : en:Chapter 5
00:43:49.005 : en:Credits
下载地址:

游客,如果您要查看本帖隐藏内容请回复






上一篇:撕裂记忆体/The Lazarus Project第一季/全8集(2022)/4K高清版本下载
下一篇:大湖小爱(简繁中字)(2022) 第一季全8集/4K高清版本下载
回复

使用道具 举报

3

主题

1709

帖子

4721

积分

4K家园VIP

Rank: 9Rank: 9Rank: 9

积分
4721
发表于 2022-6-18 10:19:28 | 显示全部楼层
啊啊啊啊啊啊啊啊啊啊啊
回复 支持 反对

使用道具 举报

0

主题

254

帖子

1610

积分

4K家园VIP

Rank: 9Rank: 9Rank: 9

积分
1610
QQ
发表于 2022-6-18 21:49:28 | 显示全部楼层
让 江小白 来看看帖子里藏了啥好东西~~~
回复 支持 反对

使用道具 举报

5

主题

1698

帖子

4700

积分

4K家园VIP

Rank: 9Rank: 9Rank: 9

积分
4700
发表于 2022-6-19 20:19:06 来自手机 | 显示全部楼层
鄙视楼下的顶帖没我快,哈哈
回复 支持 反对

使用道具 举报

1

主题

1416

帖子

4092

积分

4K家园VIP

Rank: 9Rank: 9Rank: 9

积分
4092
发表于 7 天前 | 显示全部楼层
分享的不错,希望楼主继续分享
回复 支持 反对

使用道具 举报

2

主题

1419

帖子

4109

积分

中级会员

Rank: 4

积分
4109
发表于 7 天前 来自手机 | 显示全部楼层
沙发???
回复 支持 反对

使用道具 举报

0

主题

13

帖子

102

积分

新手上路

Rank: 1

积分
102
发表于 7 天前 | 显示全部楼层
是系列剧吗,多少集
回复 支持 反对

使用道具 举报

62

主题

1602

帖子

4642

积分

4K家园VIP

Rank: 9Rank: 9Rank: 9

积分
4642
发表于 6 天前 | 显示全部楼层
佩服佩服!
回复 支持 反对

使用道具 举报

您需要登录后才可以回帖 登录 | 立即注册

本版积分规则

精彩图文
Archiver|手机版|TAG|Sitemap|新帖|专题|联系我们:邮箱: 4kjia.com@gmail.com   

4k家园   ©2019