大湖小爱(简繁中字)(2022) 第一季全8集/4K高清版本下载

[复制链接]

154

主题

175

帖子

1746

积分

版主

Rank: 7Rank: 7Rank: 7

积分
1746
 楼主| 发表于 2022-6-18 15:42:47 | 显示全部楼层 |阅读模式
f8b0bf7bd42d2f4f68788b46281b3e13_副本.jpg

◎译  名 大湖小爱
◎片  名 The Lake
◎年  代 2022
◎产  地 加拿大
◎类  别 喜剧/同性/家庭
◎语  言 英语
◎上映日期 2022-06-17(加拿大)
◎IMDb评分  7.2/10 from 74 users
◎IMDb链接  https://www.imdb.com/title/tt15176890/
◎豆瓣评分 0/10 from 0 users
◎豆瓣链接 https://douban.com/subject/35700407/
◎集  数 8
◎主  演 乔丹·加文瑞斯 Jordan Gavaris
       朱丽娅·斯蒂尔斯 Julia Stiles
       特瑞·陈 Terry Chen
       杰瑞德·斯科特 Jared Scott
       特拉维斯·尼尔森 Travis Nelson
       娜塔莉·林斯卡 Natalie Lisinska
       乔恩·多尔 Jon Dore
       朱莉娅·拉隆德 Julia Lalonde
       凯特琳·伯纳德 Kaitlyn Bernard
       布里埃尔·罗比拉德 Brielle Robillard
       Bill Lake Bill Lake
       达伦·W·马吕努克 Darren W. Marynuk
       杰瑞·奥康奈尔 Jerry O'Connell


◎简  介

  贾斯汀从国外回来,希望与他放弃收养的亲生女儿重新联系。当他发现父亲把家里的小屋留给了继父时,他的计划就出了岔子。

Video
ID : 1
Format : HEVC
Format/Info : High Efficiency Video Coding
Format profile : Main 10@L5@Main
HDR format : SMPTE ST 2094 App 4, Version 1, HDR10+ Profile B compatible
Codec ID : V_MPEGH/ISO/HEVC
Duration : 36 min 5 s
Bit rate : 14.2 Mb/s
Width : 3 840 pixels
Height : 2 160 pixels
Display aspect ratio : 16:9
Frame rate mode : Constant
Frame rate : 23.976 (24000/1001) FPS
Color space : YUV
Chroma subsampling : 4:2:0
Bit depth : 10 bits
Bits/(Pixel*Frame) : 0.072
Stream size : 3.59 GiB (96%)
Default : Yes
Forced : No
Color range : Limited
Color primaries : BT.2020
Transfer characteristics : PQ
Matrix coefficients : BT.2020 non-constant
Mastering display color primaries : Display P3
Mastering display luminance : min: 0.0001 cd/m2, max: 1000 cd/m2
Maximum Content Light Level : 998 cd/m2
Maximum Frame-Average Light Level : 138 cd/m2

Audio
ID : 2
Format : E-AC-3
Format/Info : Enhanced AC-3
Commercial name : Dolby Digital Plus
Codec ID : A_EAC3
Duration : 36 min 5 s
Bit rate mode : Constant
Bit rate : 640 kb/s
Channel(s) : 6 channels
Channel layout : L R C LFE Ls Rs
Sampling rate : 48.0 kHz
Frame rate : 31.250 FPS (1536 SPF)
Compression mode : Lossy
Stream size : 165 MiB (4%)
Title : English
Language : English
Service kind : Complete Main
Default : No
Forced : No

Text #1
ID : 3
Format : UTF-8
Codec ID : S_TEXT/UTF8
Codec ID/Info : UTF-8 Plain Text
Duration : 34 min 56 s
Bit rate : 194 b/s
Count of elements : 607
Stream size : 49.7 KiB (0%)
Title : Thai
Language : Thai
Default : No
Forced : No

Text #2
ID : 4
Format : UTF-8
Codec ID : S_TEXT/UTF8
Codec ID/Info : UTF-8 Plain Text
Duration : 34 min 56 s
Bit rate : 133 b/s
Count of elements : 607
Stream size : 34.2 KiB (0%)
Title : Ukrainian
Language : Ukrainian
Default : No
Forced : No

Text #3
ID : 5
Format : UTF-8
Codec ID : S_TEXT/UTF8
Codec ID/Info : UTF-8 Plain Text
Duration : 34 min 56 s
Bit rate : 76 b/s
Count of elements : 607
Stream size : 19.7 KiB (0%)
Title : Norwegian (Bokmål)
Language : Norwegian Bokmal
Default : No
Forced : No

Text #4
ID : 6
Format : UTF-8
Codec ID : S_TEXT/UTF8
Codec ID/Info : UTF-8 Plain Text
Duration : 34 min 56 s
Bit rate : 80 b/s
Count of elements : 607
Stream size : 20.5 KiB (0%)
Title : Czech
Language : Czech
Default : No
Forced : No

Text #5
ID : 7
Format : UTF-8
Codec ID : S_TEXT/UTF8
Codec ID/Info : UTF-8 Plain Text
Duration : 34 min 56 s
Bit rate : 84 b/s
Count of elements : 607
Stream size : 21.7 KiB (0%)
Title : Romanian
Language : Romanian
Default : No
Forced : No

Text #6
ID : 8
Format : UTF-8
Codec ID : S_TEXT/UTF8
Codec ID/Info : UTF-8 Plain Text
Duration : 34 min 56 s
Bit rate : 93 b/s
Count of elements : 607
Stream size : 23.8 KiB (0%)
Title : Korean
Language : Korean
Default : No
Forced : No

Text #7
ID : 9
Format : UTF-8
Codec ID : S_TEXT/UTF8
Codec ID/Info : UTF-8 Plain Text
Duration : 34 min 56 s
Bit rate : 203 b/s
Count of elements : 607
Stream size : 52.2 KiB (0%)
Title : Hindi
Language : Hindi
Default : No
Forced : No

Text #8
ID : 10
Format : UTF-8
Codec ID : S_TEXT/UTF8
Codec ID/Info : UTF-8 Plain Text
Duration : 34 min 56 s
Bit rate : 79 b/s
Count of elements : 607
Stream size : 20.5 KiB (0%)
Title : Swedish
Language : Swedish
Default : No
Forced : No

Text #9
ID : 11
Format : UTF-8
Codec ID : S_TEXT/UTF8
Codec ID/Info : UTF-8 Plain Text
Duration : 34 min 56 s
Bit rate : 79 b/s
Count of elements : 607
Stream size : 20.3 KiB (0%)
Title : French (Canada)
Language : French
Default : No
Forced : No

Text #10
ID : 12
Format : UTF-8
Codec ID : S_TEXT/UTF8
Codec ID/Info : UTF-8 Plain Text
Duration : 34 min 56 s
Bit rate : 80 b/s
Count of elements : 606
Stream size : 20.6 KiB (0%)
Title : German
Language : German
Default : No
Forced : No

Text #11
ID : 13
Format : UTF-8
Codec ID : S_TEXT/UTF8
Codec ID/Info : UTF-8 Plain Text
Duration : 34 min 56 s
Bit rate : 198 b/s
Count of elements : 607
Stream size : 50.7 KiB (0%)
Title : Telugu
Language : Telugu
Default : No
Forced : No

Text #12
ID : 14
Format : UTF-8
Codec ID : S_TEXT/UTF8
Codec ID/Info : UTF-8 Plain Text
Duration : 34 min 56 s
Bit rate : 84 b/s
Count of elements : 607
Stream size : 21.6 KiB (0%)
Title : Hungarian
Language : Hungarian
Default : No
Forced : No

Text #13
ID : 15
Format : UTF-8
Codec ID : S_TEXT/UTF8
Codec ID/Info : UTF-8 Plain Text
Duration : 34 min 56 s
Bit rate : 77 b/s
Count of elements : 607
Stream size : 19.7 KiB (0%)
Title : 中文 (简体)
Language : 中文
Default : No
Forced : No


Text #14
ID : 16
Format : UTF-8
Codec ID : S_TEXT/UTF8
Codec ID/Info : UTF-8 Plain Text
Duration : 34 min 56 s
Bit rate : 79 b/s
Count of elements : 605
Stream size : 20.2 KiB (0%)
Title : Malay
Language : Malay
Default : No
Forced : No

Text #15
ID : 17
Format : UTF-8
Codec ID : S_TEXT/UTF8
Codec ID/Info : UTF-8 Plain Text
Duration : 34 min 56 s
Bit rate : 77 b/s
Count of elements : 607
Stream size : 19.8 KiB (0%)
Title : Brazilian Portuguese
Language : Portuguese
Default : No
Forced : No

Text #16
ID : 18
Format : UTF-8
Codec ID : S_TEXT/UTF8
Codec ID/Info : UTF-8 Plain Text
Duration : 34 min 56 s
Bit rate : 81 b/s
Count of elements : 607
Stream size : 21.0 KiB (0%)
Title : Turkish
Language : Turkish
Default : No
Forced : No

Text #17
ID : 19
Format : UTF-8
Codec ID : S_TEXT/UTF8
Codec ID/Info : UTF-8 Plain Text
Duration : 34 min 56 s
Bit rate : 77 b/s
Count of elements : 607
Stream size : 19.9 KiB (0%)
Title : Castilian
Language : Spanish
Default : No
Forced : No

Text #18
ID : 20
Format : UTF-8
Codec ID : S_TEXT/UTF8
Codec ID/Info : UTF-8 Plain Text
Duration : 34 min 56 s
Bit rate : 99 b/s
Count of elements : 607
Stream size : 25.5 KiB (0%)
Title : Vietnamese
Language : Vietnamese
Default : No
Forced : No

Text #19
ID : 21
Format : UTF-8
Codec ID : S_TEXT/UTF8
Codec ID/Info : UTF-8 Plain Text
Duration : 34 min 56 s
Bit rate : 143 b/s
Count of elements : 607
Stream size : 36.6 KiB (0%)
Title : Hebrew
Language : Hebrew
Default : No
Forced : No

Text #20
ID : 22
Format : UTF-8
Codec ID : S_TEXT/UTF8
Codec ID/Info : UTF-8 Plain Text
Duration : 34 min 56 s
Bit rate : 77 b/s
Count of elements : 607
Stream size : 19.8 KiB (0%)
Title : Danish
Language : Danish
Default : No
Forced : No

Text #21
ID : 23
Format : UTF-8
Codec ID : S_TEXT/UTF8
Codec ID/Info : UTF-8 Plain Text
Duration : 34 min 56 s
Bit rate : 72 b/s
Count of elements : 584
Stream size : 18.5 KiB (0%)
Title : Japanese
Language : Japanese
Default : No
Forced : No

Text #22
ID : 24
Format : UTF-8
Codec ID : S_TEXT/UTF8
Codec ID/Info : UTF-8 Plain Text
Duration : 34 min 56 s
Bit rate : 77 b/s
Count of elements : 606
Stream size : 19.9 KiB (0%)
Title : French
Language : French
Default : No
Forced : No

Text #23
ID : 25
Format : UTF-8
Codec ID : S_TEXT/UTF8
Codec ID/Info : UTF-8 Plain Text
Duration : 34 min 55 s
Bit rate : 96 b/s
Count of elements : 774
Stream size : 24.7 KiB (0%)
Title : English [SDH]
Language : English
Default : No
Forced : No

Text #24
ID : 26
Format : UTF-8
Codec ID : S_TEXT/UTF8
Codec ID/Info : UTF-8 Plain Text
Duration : 34 min 56 s
Bit rate : 77 b/s
Count of elements : 605
Stream size : 19.8 KiB (0%)
Title : Dutch
Language : Dutch
Default : No
Forced : No

Text #25
ID : 27
Format : UTF-8
Codec ID : S_TEXT/UTF8
Codec ID/Info : UTF-8 Plain Text
Duration : 34 min 56 s
Bit rate : 74 b/s
Count of elements : 607
Stream size : 19.1 KiB (0%)
Title : Spanish
Language : Spanish
Default : No
Forced : No

Text #26
ID : 28
Format : UTF-8
Codec ID : S_TEXT/UTF8
Codec ID/Info : UTF-8 Plain Text
Duration : 34 min 56 s
Bit rate : 73 b/s
Count of elements : 600
Stream size : 18.7 KiB (0%)
Title : Polish
Language : Polish
Default : No
Forced : No

Text #27
ID : 29
Format : UTF-8
Codec ID : S_TEXT/UTF8
Codec ID/Info : UTF-8 Plain Text
Duration : 34 min 56 s
Bit rate : 75 b/s
Count of elements : 606
Stream size : 19.4 KiB (0%)
Title : Indonesian
Language : Indonesian
Default : No
Forced : No

Text #28
ID : 30
Format : UTF-8
Codec ID : S_TEXT/UTF8
Codec ID/Info : UTF-8 Plain Text
Duration : 34 min 55 s
Bit rate : 86 b/s
Count of elements : 703
Stream size : 22.1 KiB (0%)
Title : English
Language : English
Default : No
Forced : No

Text #29
ID : 31
Format : UTF-8
Codec ID : S_TEXT/UTF8
Codec ID/Info : UTF-8 Plain Text
Duration : 34 min 56 s
Bit rate : 140 b/s
Count of elements : 607
Stream size : 35.9 KiB (0%)
Title : Arabic
Language : Arabic
Default : No
Forced : No

Text #30
ID : 32
Format : UTF-8
Codec ID : S_TEXT/UTF8
Codec ID/Info : UTF-8 Plain Text
Duration : 34 min 56 s
Bit rate : 132 b/s
Count of elements : 607
Stream size : 33.8 KiB (0%)
Title : Russian
Language : Russian
Default : No
Forced : No

Text #31
ID : 33
Format : UTF-8
Codec ID : S_TEXT/UTF8
Codec ID/Info : UTF-8 Plain Text
Duration : 34 min 56 s
Bit rate : 76 b/s
Count of elements : 604
Stream size : 19.7 KiB (0%)
Title : Filipino
Language : fil
Default : No
Forced : No

Text #32
ID : 34
Format : UTF-8
Codec ID : S_TEXT/UTF8
Codec ID/Info : UTF-8 Plain Text
Duration : 34 min 56 s
Bit rate : 78 b/s
Count of elements : 607
Stream size : 20.0 KiB (0%)
Title : Portuguese
Language : Portuguese
Default : No
Forced : No

Text #33
ID : 35
Format : UTF-8
Codec ID : S_TEXT/UTF8
Codec ID/Info : UTF-8 Plain Text
Duration : 34 min 56 s
Bit rate : 69 b/s
Count of elements : 604
Stream size : 17.7 KiB (0%)
Title : Finnish
Language : Finnish
Default : No
Forced : No

Text #34
ID : 36
Format : UTF-8
Codec ID : S_TEXT/UTF8
Codec ID/Info : UTF-8 Plain Text
Duration : 34 min 56 s
Bit rate : 78 b/s
Count of elements : 607
Stream size : 20.2 KiB (0%)
Title : Italian
Language : Italian
Default : No
Forced : No

Text #35
ID : 37
Format : UTF-8
Codec ID : S_TEXT/UTF8
Codec ID/Info : UTF-8 Plain Text
Duration : 34 min 56 s
Bit rate : 204 b/s
Count of elements : 607
Stream size : 52.3 KiB (0%)
Title : Tamil
Language : Tamil
Default : No
Forced : No

Text #36
ID : 38
Format : UTF-8
Codec ID : S_TEXT/UTF8
Codec ID/Info : UTF-8 Plain Text
Duration : 34 min 56 s
Bit rate : 73 b/s
Count of elements : 607
Stream size : 18.7 KiB (0%)
Title : 中文(繁体)
Language : 中文
Default : No
Forced : No


Menu
00:00:00.000 : Amazon Original
00:00:04.000 : Scene 2
00:02:10.000 : Scene 3
00:04:00.000 : Title Sequence
00:04:07.000 : Scene 5
00:05:24.000 : Scene 6
00:07:01.000 : Scene 7
00:07:40.000 : Scene 8
00:09:07.000 : Scene 9
00:11:22.000 : Scene 10
00:11:59.000 : Scene 11
00:13:11.000 : Scene 12
00:13:53.000 : Scene 13
00:16:36.000 : Scene 14
00:19:37.000 : Scene 15
00:23:31.000 : Scene 16
00:26:57.000 : Scene 17
00:27:44.000 : Scene 18
00:27:55.000 : Scene 19
00:29:35.000 : Scene 20
00:30:19.000 : Scene 21
00:32:17.000 : Scene 22
00:34:06.000 : End Credits


下载地址:

游客,如果您要查看本帖隐藏内容请回复




上一篇:卡戴珊家族 / The Kardashians (2022) 第一季/全10集/4K高清版本下载
下一篇:因你而爱 / I Love That For You (2022) 第一季全8集/4K高清版本下载
回复

使用道具 举报

0

主题

1729

帖子

4701

积分

4K家园VIP

Rank: 9Rank: 9Rank: 9

积分
4701
发表于 2022-6-18 15:43:12 | 显示全部楼层
撸过
回复 支持 反对

使用道具 举报

2

主题

1668

帖子

4644

积分

4K家园VIP

Rank: 9Rank: 9Rank: 9

积分
4644
发表于 2022-6-19 17:29:59 | 显示全部楼层
顶起出售广告位
回复 支持 反对

使用道具 举报

1

主题

1394

帖子

4030

积分

4K家园VIP

Rank: 9Rank: 9Rank: 9

积分
4030
发表于 7 天前 来自手机 | 显示全部楼层
向楼主学习
回复 支持 反对

使用道具 举报

59

主题

1563

帖子

4485

积分

4K家园VIP

Rank: 9Rank: 9Rank: 9

积分
4485
发表于 7 天前 | 显示全部楼层
一直在看
回复 支持 反对

使用道具 举报

0

主题

1166

帖子

3512

积分

4K家园VIP

Rank: 9Rank: 9Rank: 9

积分
3512
发表于 昨天 01:13 来自手机 | 显示全部楼层
垃圾内容,路过为证。
回复 支持 反对

使用道具 举报

您需要登录后才可以回帖 登录 | 立即注册

本版积分规则

精彩图文
Archiver|手机版|TAG|Sitemap|新帖|专题|联系我们:邮箱: 4kjia.com@gmail.com   

4k家园   ©2019