因你而爱 / I Love That For You (2022) 第一季全8集/4K高清版本下载

[复制链接]

154

主题

175

帖子

1746

积分

版主

Rank: 7Rank: 7Rank: 7

积分
1746
 楼主| 发表于 2022-6-18 15:57:17 | 显示全部楼层 |阅读模式

520d0e25361a485390768a918c2acae0_副本.jpg

◎译  名 因你而爱/了不起/Big Deal/I Love This For You
◎片  名 I Love That For You
◎年  代 2022
◎产  地 美国
◎类  别 喜剧
◎语  言 英语
◎上映日期 2022-04-29(美国)
◎IMDb评分  7.2/10 from 998 users
◎IMDb链接  https://www.imdb.com/title/tt9319706/
◎豆瓣评分 0/10 from 0 users
◎豆瓣链接 https://douban.com/subject/30377054/
◎导  演 迈克尔·肖沃特 Michael Showalter
◎编  剧 瓦妮莎·贝尔 Vanessa Bayer / 杰里米·贝勒 Jeremy Beiler
◎主  演 瓦妮莎·贝尔 Vanessa Bayer
       马特·罗杰斯 Matt Rogers
       帕纳姆·帕特尔 Punam Patel
       艾登·梅耶里 Ayden Mayeri
       保罗·詹姆斯 Paul James
       塔米·赛格 Tami Sagher
       莫莉·香侬 Molly Shannon
       斯碧尔·谢波德 Cybill Shepherd


◎简  介

  曾经在《SNL》的Vanessa Bayer参演Showtime单镜头喜剧试映集《因你而爱 I Love This For You》(前名《了不起 Big Deal》),这部剧由Vanessa Bayer及前《周六夜现场》编剧Jeremy Beiler共同主创﹑Michael Showalter执导。

  《因你而爱》讲述女主(Vanessa Bayer饰)克服小时患上的白血病,达成登上QVC(电视购物公司)节目当主持人的梦想。今天Punam Patel及Matt Rogers加盟剧组。

  Punam Patel饰演古怪的后台制作人Tami﹑Matt Rogers饰演电视购物公司频道CEO的左右手Darcy。

Video
ID : 1
Format : HEVC
Format/Info : High Efficiency Video Coding
Format profile : Main@L5@Main
Codec ID : V_MPEGH/ISO/HEVC
Duration : 31 min 27 s
Bit rate : 14.0 Mb/s
Width : 3 840 pixels
Height : 2 160 pixels
Display aspect ratio : 16:9
Frame rate mode : Constant
Frame rate : 23.976 (24000/1001) FPS
Color space : YUV
Chroma subsampling : 4:2:0
Bit depth : 8 bits
Bits/(Pixel*Frame) : 0.070
Stream size : 3.07 GiB (95%)
Writing library : x265 3.4hy:[Linux][GCC 7.5.0][64 bit] 8bit
Encoding settings : cpuid=1111039 / frame-threads=6 / no-wpp / no-pmode / no-pme / no-psnr / no-ssim / log-level=2 / input-csp=1 / input-res=3840x2160 / interlace=0 / total-frames=0 / level-idc=0 / high-tier=1 / uhd-bd=0 / ref=4 / no-allow-non-conformance / repeat-headers / annexb / aud / hrd / info / hash=0 / no-temporal-layers / no-open-gop / min-keyint=48 / keyint=48 / gop-lookahead=0 / bframes=4 / b-adapt=2 / b-pyramid / bframe-bias=0 / rc-lookahead=48 / lookahead-slices=4 / scenecut=0 / hist-scenecut=0 / radl=0 / no-splice / no-intra-refresh / ctu=64 / min-cu-size=8 / rect / no-amp / max-tu-size=32 / tu-inter-depth=1 / tu-intra-depth=1 / limit-tu=0 / rdoq-level=2 / dynamic-rd=0.00 / no-ssim-rd / signhide / no-tskip / nr-intra=100 / nr-inter=400 / no-constrained-intra / strong-intra-smoothing / max-merge=3 / limit-refs=3 / limit-modes / me=3 / subme=3 / merange=57 / temporal-mvp / no-frame-dup / no-hme / weightp / no-weightb / no-analyze-src-pics / deblock=0:0 / sao / no-sao-non-deblock / rd=4 / selective-sao=4 / no-early-skip / rskip / no-fast-intra / no-tskip-fast / no-cu-lossless / no-b-intra / no-splitrd-skip / rdpenalty=0 / psy-rd=0.00 / psy-rdoq=1.00 / no-rd-refine / no-lossless / cbqpoffs=0 / crqpoffs=0 / rc=abr / bitrate=15000 / qcomp=0.60 / qpstep=4 / stats-write=0 / stats-read=2 / cplxblur=20.0 / qblur=0.5 / vbv-maxrate=18000 / vbv-bufsize=12000 / vbv-init=0.6 / vbv-end=0.6 / vbv-end-fr-adj=0.0 / ipratio=1.40 / pbratio=1.30 / aq-mode=2 / aq-strength=1.00 / cutree / zone-count=0 / no-strict-cbr / qg-size=32 / no-rc-grain / qpmax=69 / qpmin=0 / no-const-vbv / sar=1 / overscan=0 / videoformat=5 / range=0 / colorprim=1 / transfer=1 / colormatrix=1 / chromaloc=0 / display-window=0 / cll=0,0 / min-luma=0 / max-luma=255 / log2-max-poc-lsb=8 / vui-timing-info / vui-hrd-info / no-concatenation / slices=1 / no-opt-qp-pps / no-opt-ref-list-length-pps / no-multi-pass-opt-rps / scenecut-bias=0.05 / hist-threshold=0.01 / no-opt-cu-delta-qp / no-aq-motion / no-hdr10 / no-hdr10-opt / no-dhdr10-opt / no-idr-recovery-sei / analysis-reuse-level=0 / analysis-save-reuse-level=0 / analysis-load-reuse-level=0 / scale-factor=0 / refine-intra=0 / refine-inter=0 / refine-mv=1 / refine-ctu-distortion=0 / no-limit-sao / ctu-info=0 / no-lowpass-dct / refine-analysis-type=0 / copy-pic=1 / max-ausize-factor=1.0 / no-dynamic-refine / no-single-sei / no-hevc-aq / no-svt / no-field / qp-adaptation-range=1.00 / no-scenecut-aware-qpconformance-window-offsets / right=0 / bottom=0 / decoder-max-rate=0
Default : Yes
Forced : No
Color range : Limited
Color primaries : BT.709
Transfer characteristics : BT.709
Matrix coefficients : BT.709

Audio
ID : 2
Format : AC-3
Format/Info : Audio Coding 3
Commercial name : Dolby Digital
Codec ID : A_AC3
Duration : 31 min 27 s
Bit rate mode : Constant
Bit rate : 384 kb/s
Channel(s) : 6 channels
Channel layout : L R C LFE Ls Rs
Sampling rate : 48.0 kHz
Frame rate : 31.250 FPS (1536 SPF)
Compression mode : Lossy
Stream size : 86.4 MiB (3%)
Language : English
Service kind : Complete Main
Default : Yes
Forced : No

Text
ID : 3
Format : UTF-8
Codec ID : S_TEXT/UTF8
Codec ID/Info : UTF-8 Plain Text
Title : English
Language : English
Default : No
Forced : No


下载地址

游客,如果您要查看本帖隐藏内容请回复

游客,如果您要查看本帖隐藏内容请回复

游客,如果您要查看本帖隐藏内容请回复

游客,如果您要查看本帖隐藏内容请回复





上一篇:大湖小爱(简繁中字)(2022) 第一季全8集/4K高清版本下载
下一篇:我变美的那夏天[简繁中字](2022)第一季/全10集/4K高清版本下载
回复

使用道具 举报

34

主题

1548

帖子

4354

积分

4K家园VIP

Rank: 9Rank: 9Rank: 9

积分
4354
发表于 2022-6-18 15:57:28 来自手机 | 显示全部楼层
没看懂
回复 支持 反对

使用道具 举报

1

主题

1678

帖子

4690

积分

4K家园VIP

Rank: 9Rank: 9Rank: 9

积分
4690
发表于 7 天前 | 显示全部楼层
专业抢沙发的!哈哈
回复 支持 反对

使用道具 举报

57

主题

1545

帖子

4485

积分

4K家园VIP

Rank: 9Rank: 9Rank: 9

积分
4485
发表于 7 天前 来自手机 | 显示全部楼层
哈哈,我只看看不说话
回复 支持 反对

使用道具 举报

1

主题

1393

帖子

3989

积分

4K家园VIP

Rank: 9Rank: 9Rank: 9

积分
3989
发表于 4 天前 | 显示全部楼层
好像还可以
回复 支持 反对

使用道具 举报

1

主题

1423

帖子

4079

积分

4K家园VIP

Rank: 9Rank: 9Rank: 9

积分
4079
发表于 前天 15:36 | 显示全部楼层
边撸边过
回复 支持 反对

使用道具 举报

您需要登录后才可以回帖 登录 | 立即注册

本版积分规则

精彩图文
Archiver|手机版|TAG|Sitemap|新帖|专题|联系我们:邮箱: 4kjia.com@gmail.com   

4k家园   ©2019