[4K电影] 夏洛特的网 / Charlotte's Web (2006) 4K高清版本下载

[复制链接]

2299

主题

2448

帖子

1万

积分

超级版主

Rank: 8Rank: 8

积分
17752
 楼主| 发表于 2022-6-20 09:54:12 | 显示全部楼层 |阅读模式

QQ图片20220620095137_副本.png

◎译  名 夏洛特的网/篱笆墙外/夏洛的网/莎乐的神奇网网/夏绿蒂的网/Schweinchen Wilbur und seine Freunde
◎片  名 Charlotte's Web
◎年  代 2006
◎产  地 美国/德国
◎类  别 喜剧/家庭/奇幻
◎语  言 英语
◎上映日期 2006-12-15(美国)
◎IMDb评分  6.3/10 from 41648 users
◎IMDb链接  https://www.imdb.com/title/tt0413895/
◎豆瓣评分 8.0/10 from 66819 users
◎豆瓣链接 https://movie.douban.com/subject/1457218/
◎导  演 盖瑞·温尼克 Gary Winick
◎编  剧 苏珊娜·格兰特 Susannah Grant / 凯瑞·柯克帕特里克 Karey Kirkpatrick
◎主  演 朱莉娅·罗伯茨 Julia Roberts
       史蒂夫·布西密 Steve Buscemi
       约翰·克里斯 John Cleese
       奥普拉·温弗瑞 Oprah Winfrey
       塞德里克·凯尔斯 Cedric the Entertainer
       凯西·贝茨 Kathy Bates
       瑞芭·麦肯泰尔 Reba McEntire
       罗伯特·雷德福 Robert Redford
       托马斯·哈登·丘奇 Thomas Haden Church
       安德雷·本杰明 André Benjamin
       多米尼克·斯科特·凯伊 Dominic Scott Kay
       山姆·夏普德 Sam Shepard
       亚布拉哈姆·本鲁比 Abraham Benrubi
       达科塔·范宁 Dakota Fanning
       凯文·安德森 Kevin Anderson
       埃茜·戴维斯 Essie Davis
       路易·科比特 Louis Corbett
       鹤田真由 Mayu Tsuruta
       博·布里奇斯 Beau Bridges
       希博汗·法隆 Siobhan Fallon
       尼古拉斯·贝尔 Nicholas Bell
       布赖恩·斯特帕尼克 Brian Stepanek
       弗雷德·塔特西奥 Fred Tatasciore
       Bradley White Bradley White
       盖里·巴萨拉巴 Gary Basaraba
       内特·莫尼 Nate Mooney
       Don Bridges Don Bridges
       Robert Plazek
       Ian Watkin Ian Watkin
       Teague Rook Teague Rook
       乔尔·麦克拉里 Joel McCrary
       艾拉·斯科特·林奇 Ella Scott Lynch
       Greg Marian
       Stefano Mazzeo
       Julian O'Donnell Julian O'Donnell


◎简  介


  小女孩阿芬家的母猪在春天生下了一窝11只小猪,母猪只有十个奶头,最瘦弱的一只小猪没奶吃,阿芬爸爸准备将其杀掉。阿芬救下了小猪,帮它取名韦宝,亲自喂养。随着小猪慢慢长大,阿芬不能再在家里养韦宝了,阿芬只好把韦宝送到隔壁舅舅的农场里继续饲养。韦宝天真烂漫,很快就以其热情、开朗的性格和农场里的动物成了好朋友。
  幸福快乐的时光很快过去,韦宝从其他动物口中得知春天出生的小猪圣诞节前就会被杀掉制熏肉。韦宝的好朋友蜘蛛莎莉承诺会让韦宝看到冬天的雪。在老鼠的帮助下,莎莉织出了各种各样神奇的字来形容韦宝,引来人们争相观看,韦宝最终能否看到冬天的雪?

Video
ID : 1
Format : HEVC
Format/Info : High Efficiency Video Coding
Format profile : Main 10@L5@Main
HDR format : SMPTE ST 2094 App 4, Version 1, HDR10+ Profile B compatible
Codec ID : V_MPEGH/ISO/HEVC
Duration : 1 h 36 min
Bit rate : 14.9 Mb/s
Width : 3 840 pixels
Height : 2 080 pixels
Display aspect ratio : 1.85:1
Frame rate mode : Constant
Frame rate : 23.976 (24000/1001) FPS
Color space : YUV
Chroma subsampling : 4:2:0
Bit depth : 10 bits
Bits/(Pixel*Frame) : 0.078
Stream size : 10.1 GiB (76%)
Language : English
Default : Yes
Forced : No
Color range : Limited
Color primaries : BT.2020
Transfer characteristics : PQ
Matrix coefficients : BT.2020 non-constant
Mastering display color primaries : Display P3
Mastering display luminance : min: 0.0001 cd/m2, max: 1000 cd/m2
Maximum Content Light Level : 674 cd/m2
Maximum Frame-Average Light Level : 240 cd/m2

Audio #1
ID : 2
Format : DTS XLL
Format/Info : Digital Theater Systems
Commercial name : DTS-HD Master Audio
Codec ID : A_DTS
Duration : 1 h 36 min
Bit rate mode : Variable
Bit rate : 4 077 kb/s
Channel(s) : 6 channels
Channel layout : C L R Ls Rs LFE
Sampling rate : 48.0 kHz
Frame rate : 93.750 FPS (512 SPF)
Bit depth : 24 bits
Compression mode : Lossless
Stream size : 2.76 GiB (21%)
Title : DTS-HD MA 5.1
Language : English
Default : Yes
Forced : No

Audio #2
ID : 3
Format : E-AC-3
Format/Info : Enhanced AC-3
Commercial name : Dolby Digital Plus
Codec ID : A_EAC3
Duration : 1 h 36 min
Bit rate mode : Constant
Bit rate : 640 kb/s
Channel(s) : 6 channels
Channel layout : L R C LFE Ls Rs
Sampling rate : 48.0 kHz
Frame rate : 31.250 FPS (1536 SPF)
Compression mode : Lossy
Stream size : 444 MiB (3%)
Language : English
Service kind : Complete Main
Default : No
Forced : No

Text #1
ID : 4
Format : UTF-8
Codec ID : S_TEXT/UTF8
Codec ID/Info : UTF-8 Plain Text
Duration : 1 h 32 min
Bit rate : 72 b/s
Count of elements : 1669
Stream size : 49.1 KiB (0%)
Title : SDH
Language : English
Default : Yes
Forced : No

Text #2
ID : 5
Format : PGS
Muxing mode : zlib
Codec ID : S_HDMV/PGS
Codec ID/Info : Picture based subtitle format used on BDs/HD-DVDs
Duration : 1 h 25 min
Bit rate : 57.0 kb/s
Count of elements : 2472
Stream size : 34.8 MiB (0%)
Title : English
Language : English
Default : No
Forced : No

Text #3
ID : 6
Format : PGS
Muxing mode : zlib
Codec ID : S_HDMV/PGS
Codec ID/Info : Picture based subtitle format used on BDs/HD-DVDs
Duration : 1 h 32 min
Bit rate : 62.3 kb/s
Count of elements : 2926
Stream size : 41.2 MiB (0%)
Title : English (SDH)
Language : English
Default : No
Forced : No

Text #4
ID : 7
Format : PGS
Muxing mode : zlib
Codec ID : S_HDMV/PGS
Codec ID/Info : Picture based subtitle format used on BDs/HD-DVDs
Duration : 1 h 25 min
Bit rate : 55.1 kb/s
Count of elements : 2456
Stream size : 33.7 MiB (0%)
Title : French
Language : French
Default : No
Forced : No

Text #5
ID : 8
Format : PGS
Muxing mode : zlib
Codec ID : S_HDMV/PGS
Codec ID/Info : Picture based subtitle format used on BDs/HD-DVDs
Duration : 1 h 25 min
Bit rate : 53.1 kb/s
Count of elements : 2476
Stream size : 32.5 MiB (0%)
Title : Portuguese (Brazilian)
Language : Portuguese
Default : No
Forced : No

Text #6
ID : 9
Format : PGS
Muxing mode : zlib
Codec ID : S_HDMV/PGS
Codec ID/Info : Picture based subtitle format used on BDs/HD-DVDs
Duration : 1 h 28 min
Bit rate : 51.1 kb/s
Count of elements : 2476
Stream size : 32.3 MiB (0%)
Title : Spanish (Latin American)
Language : Spanish
Default : No
Forced : No

Menu
00:00:00.000 : en:Unfair & Unjust
00:06:42.944 : en:Wilbur & Fern
00:13:12.208 : en:Wilbur Tries to Make Friends
00:19:56.237 : en:Charlotte
00:25:10.718 : en:Rotten News
00:32:29.322 : en:A Childhood Phase
00:36:26.726 : en:Some Pig
00:41:02.794 : en:Terrific
00:45:45.159 : en:Summer to Fall
00:49:21.959 : en:Find Some Words
00:53:01.261 : en:Radiant
00:59:27.898 : en:The County Fair
01:06:16.848 : en:Humble
01:10:09.747 : en:Goodbye
01:18:01.176 : en:Greatest Promise of All
01:27:06.138 : en:End Credits


资源速度为零或资源敏感被和谐时,推荐使用qBittorrent等下载软件,有条件的推荐115更好的下载软件!

下载地址:


游客,如果您要查看本帖隐藏内容请回复






上一篇:杰瑞和玛姬生活阔绰/Jerry and Marge Go Large (2022)4K高清版本下载
下一篇:来玩 / Come Play (2020) 4K高清版本下载
回复

使用道具 举报

46

主题

1480

帖子

4276

积分

4K家园VIP

Rank: 9Rank: 9Rank: 9

积分
4276
发表于 2022-6-20 09:54:16 | 显示全部楼层
站位支持
回复 支持 反对

使用道具 举报

1

主题

1404

帖子

4066

积分

4K家园VIP

Rank: 9Rank: 9Rank: 9

积分
4066
发表于 2022-6-20 10:04:26 | 显示全部楼层
不错 支持下
回复 支持 反对

使用道具 举报

51

主题

1583

帖子

4565

积分

4K家园VIP

Rank: 9Rank: 9Rank: 9

积分
4565
发表于 2022-6-20 10:29:09 来自手机 | 显示全部楼层
垃圾内容,路过为证。
回复 支持 反对

使用道具 举报

40

主题

1558

帖子

4464

积分

4K家园VIP

Rank: 9Rank: 9Rank: 9

积分
4464
发表于 2022-6-20 18:42:06 来自手机 | 显示全部楼层
边撸边过
回复 支持 反对

使用道具 举报

0

主题

2

帖子

9

积分

新手上路

Rank: 1

积分
9
发表于 2022-6-23 15:30:11 | 显示全部楼层
感谢感谢感谢感谢
回复 支持 反对

使用道具 举报

51

主题

1485

帖子

4359

积分

4K家园VIP

Rank: 9Rank: 9Rank: 9

积分
4359
发表于 2022-6-30 16:20:21 | 显示全部楼层
我了个去,顶了
回复 支持 反对

使用道具 举报

0

主题

4

帖子

18

积分

新手上路

Rank: 1

积分
18
发表于 2022-7-3 14:25:21 来自手机 | 显示全部楼层
12344567890
回复 支持 反对

使用道具 举报

0

主题

1

帖子

6

积分

新手上路

Rank: 1

积分
6
发表于 2022-9-5 20:44:34 | 显示全部楼层
感谢楼主分享
回复 支持 反对

使用道具 举报

您需要登录后才可以回帖 登录 | 立即注册

本版积分规则

精彩图文
Archiver|手机版|TAG|Sitemap|新帖|专题|联系我们:邮箱: 4kjia.com@gmail.com   

4k家园   ©2019