[4K电影] 来玩 / Come Play (2020) 4K高清版本下载

[复制链接]

1868

主题

2007

帖子

1万

积分

超级版主

Rank: 8Rank: 8

积分
15027
 楼主| 发表于 7 天前 | 显示全部楼层 |阅读模式
QQ图片20220620095234_副本.png

◎译  名 来玩/怪奇默友(港)/鬼游戏(台)/拉里/Larry
◎片  名 Come Play
◎年  代 2020
◎产  地 美国
◎类  别 恐怖/家庭/奇幻
◎语  言 英语
◎上映日期 2020-10-30(美国)
◎IMDb评分  5.7/10 from 12628 users
◎IMDb链接  https://www.imdb.com/title/tt8004664/
◎豆瓣评分 6.2/10 from 4688 users
◎豆瓣链接 https://movie.douban.com/subject/30465104/
◎导  演 雅各布·蔡斯 Jacob Chase
◎编  剧 雅各布·蔡斯 Jacob Chase
◎主  演 艾奇·罗伯逊 Azhy Robertson
       吉莉安·雅各布斯 Gillian Jacobs
       小约翰·加拉赫 John Gallagher Jr.
       温斯洛·费格雷 Winslow Fegley
       杰登·马林 Jayden Marine
       加文·麦基弗·赖特 Gavin MacIver-Wright
       蕾切尔·威尔森 Rachel Wilson
       阿拉娜·阿什利·马奎斯 Alana-Ashley Marques
       达尔默·阿泽德 Dalmar Abuzeid
       伊斯汗·莫里斯 Ishan Morris
       埃博妮·布斯 Eboni Booth
       安娜·阿劳约 Ana Araujo
       凯特·芬顿 Kate Fenton


◎简  介


  孤单的小男孩Olive(艾奇·罗伯逊 饰),他觉得自己处处异于其他人。他很想要交朋友,于是他花很多时间在手机和平版上。当一个神秘的生物想要透过Oliver的手机和平板来进入我们的世界,Oliver的父母(吉莉安·雅各布斯 Gillia nJacobs、小约翰·加拉赫 John Gallagher Jr. 饰)必须挺身而出,将儿子从神秘生物的手中救出。
Video
ID : 1
Format : HEVC
Format/Info : High Efficiency Video Coding
Format profile : Main 10@L5@Main
Codec ID : V_MPEGH/ISO/HEVC
Duration : 1 h 36 min
Bit rate : 14.9 Mb/s
Width : 3 840 pixels
Height : 2 160 pixels
Display aspect ratio : 16:9
Frame rate mode : Constant
Frame rate : 23.976 (24000/1001) FPS
Color space : YUV
Chroma subsampling : 4:2:0
Bit depth : 10 bits
Bits/(Pixel*Frame) : 0.075
Stream size : 10.0 GiB (80%)
Writing library : x265 3.4hy:[Linux][GCC 7.5.0][64 bit] 10bit
Encoding settings : cpuid=1111039 / frame-threads=6 / no-wpp / no-pmode / no-pme / no-psnr / no-ssim / log-level=2 / input-csp=1 / input-res=3840x2160 / interlace=0 / total-frames=0 / level-idc=0 / high-tier=1 / uhd-bd=0 / ref=4 / no-allow-non-conformance / repeat-headers / annexb / aud / hrd / info / hash=0 / no-temporal-layers / no-open-gop / min-keyint=48 / keyint=48 / gop-lookahead=0 / bframes=4 / b-adapt=2 / b-pyramid / bframe-bias=0 / rc-lookahead=48 / lookahead-slices=4 / scenecut=0 / hist-scenecut=0 / radl=0 / no-splice / no-intra-refresh / ctu=64 / min-cu-size=8 / rect / no-amp / max-tu-size=32 / tu-inter-depth=1 / tu-intra-depth=1 / limit-tu=0 / rdoq-level=2 / dynamic-rd=0.00 / no-ssim-rd / signhide / no-tskip / nr-intra=100 / nr-inter=400 / no-constrained-intra / strong-intra-smoothing / max-merge=3 / limit-refs=3 / limit-modes / me=3 / subme=3 / merange=57 / temporal-mvp / no-frame-dup / no-hme / weightp / no-weightb / no-analyze-src-pics / deblock=0:0 / no-sao / no-sao-non-deblock / rd=4 / selective-sao=0 / no-early-skip / no-rskip / no-fast-intra / no-tskip-fast / no-cu-lossless / no-b-intra / no-splitrd-skip / rdpenalty=0 / psy-rd=0.00 / psy-rdoq=10.00 / no-rd-refine / no-lossless / cbqpoffs=0 / crqpoffs=3 / rc=abr / bitrate=15000 / qcomp=0.60 / qpstep=1 / stats-write=0 / stats-read=2 / cplxblur=20.0 / qblur=0.5 / vbv-maxrate=18000 / vbv-bufsize=12000 / vbv-init=0.6 / vbv-end=0.6 / vbv-end-fr-adj=0.0 / ipratio=1.10 / pbratio=1.00 / aq-mode=0 / aq-strength=0.00 / no-cutree / zone-count=0 / no-strict-cbr / qg-size=32 / rc-grain / qpmax=69 / qpmin=0 / const-vbv / sar=0 / overscan=0 / videoformat=5 / range=0 / colorprim=1 / transfer=1 / colormatrix=1 / chromaloc=0 / display-window=0 / cll=0,0 / min-luma=0 / max-luma=1023 / log2-max-poc-lsb=8 / vui-timing-info / vui-hrd-info / no-concatenation / slices=1 / no-opt-qp-pps / no-opt-ref-list-length-pps / no-multi-pass-opt-rps / scenecut-bias=0.05 / hist-threshold=0.01 / no-opt-cu-delta-qp / no-aq-motion / no-hdr10 / no-hdr10-opt / no-dhdr10-opt / no-idr-recovery-sei / analysis-reuse-level=0 / analysis-save-reuse-level=0 / analysis-load-reuse-level=0 / scale-factor=0 / refine-intra=0 / refine-inter=0 / refine-mv=1 / refine-ctu-distortion=0 / no-limit-sao / ctu-info=0 / no-lowpass-dct / refine-analysis-type=0 / copy-pic=1 / max-ausize-factor=1.0 / no-dynamic-refine / no-single-sei / no-hevc-aq / no-svt / no-field / qp-adaptation-range=1.00 / no-scenecut-aware-qpconformance-window-offsets / right=0 / bottom=0 / decoder-max-rate=0
Language : English
Default : Yes
Forced : No
Color range : Limited
Color primaries : BT.709
Transfer characteristics : BT.709
Matrix coefficients : BT.709

Audio #1
ID : 2
Format : DTS XLL
Format/Info : Digital Theater Systems
Commercial name : DTS-HD Master Audio
Codec ID : A_DTS
Duration : 1 h 36 min
Bit rate mode : Variable
Bit rate : 3 241 kb/s
Channel(s) : 6 channels
Channel layout : C L R Ls Rs LFE
Sampling rate : 48.0 kHz
Frame rate : 93.750 FPS (512 SPF)
Bit depth : 24 bits
Compression mode : Lossless
Delay relative to video : 8 ms
Stream size : 2.18 GiB (17%)
Title : DTS-HD MA 5.1
Language : English
Default : Yes
Forced : No

Audio #2
ID : 3
Format : AC-3
Format/Info : Audio Coding 3
Commercial name : Dolby Digital
Codec ID : A_AC3
Duration : 1 h 36 min
Bit rate mode : Constant
Bit rate : 384 kb/s
Channel(s) : 6 channels
Channel layout : L R C LFE Ls Rs
Sampling rate : 48.0 kHz
Frame rate : 31.250 FPS (1536 SPF)
Compression mode : Lossy
Stream size : 265 MiB (2%)
Title : English
Language : English
Service kind : Complete Main
Default : No
Forced : No

Text #1
ID : 4
Format : UTF-8
Codec ID : S_TEXT/UTF8
Codec ID/Info : UTF-8 Plain Text
Duration : 1 h 36 min
Bit rate : 46 b/s
Count of elements : 1358
Stream size : 33.1 KiB (0%)
Title : English (SDH)
Language : English
Default : Yes
Forced : No

Text #2
ID : 5
Format : PGS
Muxing mode : zlib
Codec ID : S_HDMV/PGS
Codec ID/Info : Picture based subtitle format used on BDs/HD-DVDs
Duration : 1 h 31 min
Bit rate : 26.7 kb/s
Count of elements : 1956
Stream size : 17.5 MiB (0%)
Title : English (SDH)
Language : English
Default : No
Forced : No

Text #3
ID : 6
Format : PGS
Muxing mode : zlib
Codec ID : S_HDMV/PGS
Codec ID/Info : Picture based subtitle format used on BDs/HD-DVDs
Duration : 1 h 35 min
Bit rate : 18.7 kb/s
Count of elements : 1520
Stream size : 12.8 MiB (0%)
Title : French
Language : French
Default : No
Forced : No

Text #4
ID : 7
Format : PGS
Muxing mode : zlib
Codec ID : S_HDMV/PGS
Codec ID/Info : Picture based subtitle format used on BDs/HD-DVDs
Duration : 1 h 35 min
Bit rate : 18.8 kb/s
Count of elements : 1522
Stream size : 12.9 MiB (0%)
Title : Spanish (Latin American)
Language : Spanish
Default : No
Forced : No

Menu
00:00:00.000 : en:Chapter 1
00:03:50.856 : en:Chapter 2
00:09:51.007 : en:Chapter 3
00:15:32.223 : en:Chapter 4
00:18:03.165 : en:Chapter 5
00:23:24.403 : en:Chapter 6
00:28:58.028 : en:Chapter 7
00:37:23.241 : en:Chapter 8
00:43:15.843 : en:Chapter 9
00:48:22.942 : en:Chapter 10
00:50:11.217 : en:Chapter 11
00:56:25.507 : en:Chapter 12
00:58:37.764 : en:Chapter 13
01:02:21.029 : en:Chapter 14
01:07:30.171 : en:Chapter 15
01:12:48.739 : en:Chapter 16
01:20:33.495 : en:Chapter 17
01:27:21.445 : en:Chapter 18
01:29:42.419 : en:Chapter 19
01:32:22.203 : en:Chapter 20



资源速度为零或资源敏感被和谐时,推荐使用qBittorrent等下载软件,有条件的推荐115更好的下载软件!

下载地址:


游客,如果您要查看本帖隐藏内容请回复





上一篇:夏洛特的网 / Charlotte's Web (2006) 4K高清版本下载
下一篇:纳什维尔 / Nashville (1975) 4K高清版本下载
回复

使用道具 举报

41

主题

1538

帖子

4390

积分

4K家园VIP

Rank: 9Rank: 9Rank: 9

积分
4390
发表于 7 天前 | 显示全部楼层
啊啊啊啊啊啊啊啊啊啊啊
回复 支持 反对

使用道具 举报

1

主题

1346

帖子

4054

积分

4K家园VIP

Rank: 9Rank: 9Rank: 9

积分
4054
发表于 7 天前 来自手机 | 显示全部楼层
打酱油的人拉,回复下赚取积分
回复 支持 反对

使用道具 举报

1

主题

1606

帖子

4460

积分

4K家园VIP

Rank: 9Rank: 9Rank: 9

积分
4460
发表于 6 天前 | 显示全部楼层
出4K版啦,下个看看
回复 支持 反对

使用道具 举报

2

主题

1405

帖子

4067

积分

4K家园VIP

Rank: 9Rank: 9Rank: 9

积分
4067
发表于 4 天前 来自手机 | 显示全部楼层
打酱油的人拉,回复下赚取积分
回复 支持 反对

使用道具 举报

3

主题

1385

帖子

4179

积分

4K家园VIP

Rank: 9Rank: 9Rank: 9

积分
4179
发表于 4 天前 | 显示全部楼层
看着好像不错
回复 支持 反对

使用道具 举报

您需要登录后才可以回帖 登录 | 立即注册

本版积分规则

精彩图文
Archiver|手机版|TAG|Sitemap|新帖|专题|联系我们:邮箱: 4kjia.com@gmail.com   

4k家园   ©2019