[4K电影] 红粉佳人 / Pretty in Pink (1986) 4K高清版本下载

[复制链接]

2299

主题

2448

帖子

1万

积分

超级版主

Rank: 8Rank: 8

积分
17752
 楼主| 发表于 2022-6-20 10:19:15 | 显示全部楼层 |阅读模式

QQ图片20220620100519_副本.png

◎译  名 红粉佳人/青春红粉梦
◎片  名 Pretty in Pink
◎年  代 1986
◎产  地 美国
◎类  别 剧情/喜剧/爱情
◎语  言 英语
◎上映日期 1986-02-28
◎IMDb评分  6.7/10 from 80630 users
◎IMDb链接  https://www.imdb.com/title/tt0091790/
◎豆瓣评分 7.3/10 from 1403 users
◎豆瓣链接 https://movie.douban.com/subject/1297376/
◎导  演 霍华德·达奇 Howard Deutch
◎编  剧 约翰·休斯 John Hughes
◎主  演 莫利·林沃德 Molly Ringwald
       哈利·戴恩·斯坦通 Harry Dean Stanton
       乔恩·克莱尔 Jon Cryer
         安妮·波茨 Annie Potts
       詹姆斯·斯派德 James Spader
       克里斯蒂·斯旺森 Kristy Swanson
       吉娜·格申 Gina Gershon
       凯特·维隆 Kate Vernon
       亚历克莎·克宁 Alexa Kenin
       玛格丽特·柯林 Margaret Colin
       安德鲁·麦卡锡 Andrew McCarthy
       麦琪·罗丝威尔 Maggie Roswell



◎简  介


  年轻的安迪是出身贫民区的女孩,在中学里并不受人欢迎。她经常同爱欧娜和达奇在一起,达奇迷恋安迪已久,但最近安迪结识了新生布雷恩,布雷恩的家境优越,对安迪构成了不小的诱惑……

Video
ID : 1
Format : HEVC
Format/Info : High Efficiency Video Coding
Format profile : Main 10@L5@Main
HDR format : SMPTE ST 2094 App 4, Version 1, HDR10+ Profile B compatible
Codec ID : V_MPEGH/ISO/HEVC
Duration : 1 h 36 min
Bit rate : 14.9 Mb/s
Width : 3 840 pixels
Height : 2 160 pixels
Display aspect ratio : 16:9
Frame rate mode : Constant
Frame rate : 23.976 (24000/1001) FPS
Color space : YUV
Chroma subsampling : 4:2:0
Bit depth : 10 bits
Bits/(Pixel*Frame) : 0.075
Stream size : 10.1 GiB (76%)
Language : English
Default : Yes
Forced : No
Color range : Limited
Color primaries : BT.2020
Transfer characteristics : PQ
Matrix coefficients : BT.2020 non-constant
Mastering display color primaries : Display P3
Mastering display luminance : min: 0.0001 cd/m2, max: 1000 cd/m2
Maximum Content Light Level : 1000 cd/m2
Maximum Frame-Average Light Level : 133 cd/m2

Audio #1
ID : 2
Format : DTS XLL
Format/Info : Digital Theater Systems
Commercial name : DTS-HD Master Audio
Codec ID : A_DTS
Duration : 1 h 36 min
Bit rate mode : Variable
Bit rate : 3 806 kb/s
Channel(s) : 6 channels
Channel layout : C L R Ls Rs LFE
Sampling rate : 48.0 kHz
Frame rate : 93.750 FPS (512 SPF)
Bit depth : 24 bits
Compression mode : Lossless
Stream size : 2.57 GiB (19%)
Title : Surround Upmix / DTS-HD Master Audio / 5.1 / 48 kHz / 3806 kbps / 24-bit
Language : English
Default : Yes
Forced : No

Audio #2
ID : 3
Format : E-AC-3
Format/Info : Enhanced AC-3
Commercial name : Dolby Digital Plus
Codec ID : A_EAC3
Duration : 1 h 36 min
Bit rate mode : Constant
Bit rate : 640 kb/s
Channel(s) : 6 channels
Channel layout : L R C LFE Ls Rs
Sampling rate : 48.0 kHz
Frame rate : 31.250 FPS (1536 SPF)
Compression mode : Lossy
Stream size : 443 MiB (3%)
Language : English
Service kind : Complete Main
Default : No
Forced : No

Audio #3
ID : 4
Format : AC-3
Format/Info : Audio Coding 3
Commercial name : Dolby Digital
Format settings : Dolby Surround
Codec ID : A_AC3
Duration : 1 h 36 min
Bit rate mode : Constant
Bit rate : 192 kb/s
Channel(s) : 2 channels
Channel layout : L R
Sampling rate : 48.0 kHz
Frame rate : 31.250 FPS (1536 SPF)
Compression mode : Lossy
Stream size : 133 MiB (1%)
Title : Original Stereo / Dolby Digital Audio / 2.0 / 48 kHz / 192 kbps
Language : English
Service kind : Complete Main
Default : No
Forced : No

Text #1
ID : 5
Format : UTF-8
Codec ID : S_TEXT/UTF8
Codec ID/Info : UTF-8 Plain Text
Duration : 1 h 32 min
Bit rate : 80 b/s
Count of elements : 1727
Stream size : 55.0 KiB (0%)
Title : SDH
Language : English
Default : Yes
Forced : No

Text #2
ID : 6
Format : PGS
Muxing mode : zlib
Codec ID : S_HDMV/PGS
Codec ID/Info : Picture based subtitle format used on BDs/HD-DVDs
Duration : 1 h 31 min
Bit rate : 43.8 kb/s
Count of elements : 2646
Stream size : 28.6 MiB (0%)
Language : English
Default : No
Forced : No

Text #3
ID : 7
Format : PGS
Muxing mode : zlib
Codec ID : S_HDMV/PGS
Codec ID/Info : Picture based subtitle format used on BDs/HD-DVDs
Duration : 1 h 32 min
Bit rate : 49.2 kb/s
Count of elements : 3309
Stream size : 32.7 MiB (0%)
Title : SDH
Language : English
Default : No
Forced : No

Text #4
ID : 8
Format : PGS
Muxing mode : zlib
Codec ID : S_HDMV/PGS
Codec ID/Info : Picture based subtitle format used on BDs/HD-DVDs
Duration : 1 h 31 min
Bit rate : 31.8 kb/s
Count of elements : 1994
Stream size : 20.8 MiB (0%)
Language : French
Default : No
Forced : No

Text #5
ID : 9
Format : PGS
Muxing mode : zlib
Codec ID : S_HDMV/PGS
Codec ID/Info : Picture based subtitle format used on BDs/HD-DVDs
Duration : 1 h 30 min
Bit rate : 35.0 kb/s
Count of elements : 1978
Stream size : 22.7 MiB (0%)
Language : German
Default : No
Forced : No

Text #6
ID : 10
Format : PGS
Muxing mode : zlib
Codec ID : S_HDMV/PGS
Codec ID/Info : Picture based subtitle format used on BDs/HD-DVDs
Duration : 1 h 33 min
Bit rate : 18.0 kb/s
Count of elements : 2370
Stream size : 12.1 MiB (0%)
Language : Japanese
Default : No
Forced : No

Menu
00:00:00.000 : en:Studio Logos
00:00:12.000 : en:Andie & Jack Start the Day, Opening Credits
00:03:32.000 : en:Andie & Duckie Talk
00:05:01.000 : en:Andie Gets Picked on for Being Poor
00:06:29.000 : en:Steff Hassles Andie
00:07:23.000 : en:Andie Works at Trax
00:11:47.000 : en:Andie Talks to Her Friends
00:13:12.000 : en:Andie & Duckie Drive Home
00:15:59.000 : en:Jack Gives Duckie Advice
00:19:40.000 : en:Andie Talks to Blane & Duckie
00:22:24.000 : en:Andie Listens to Her Answering Machine
00:23:31.000 : en:Jack Surprises Andie
00:24:51.000 : en:Andie & Blane Talk
00:27:46.000 : en:Andie & Duckie Talk
00:31:34.000 : en:The Girls Get Catty
00:33:18.000 : en:Andie Talks to the Principal
00:36:02.000 : enuckie Performs
00:39:00.000 : en:Blane Picks Andie Up
00:42:03.000 : en:Andie & Blane Talk
00:43:19.000 : enuckie Mopes
00:43:48.000 : en:Andie & Blane Go to a Party
00:45:46.000 : en:The Richies Are Rude
00:48:46.000 : en:Andie & Blane Go to Cats
00:53:01.000 : en:Andie & Blane Talk
00:55:58.000 : en:Andie & Jack Talk
00:58:17.000 : en:Andie & Iona Talk
01:01:16.000 : en:Iona's Relives Prom
01:03:30.000 : en:Blane & Steff Talk
01:05:17.000 : en:Andie & Blane Go on a Date
01:07:44.000 : enuckie Mopes/Andies Goes Shopping
01:09:10.000 : en:Jack Surprises Andie
01:11:31.000 : en:Andie & Jack Have a Heart-to-Heart
01:15:06.000 : en:Andie Confronts Blane
01:18:39.000 : enuckie Defends Andie
01:19:51.000 : en:Andie Visits Iona
01:23:09.000 : en:Andie Gets Ready for Prom
01:25:21.000 : en:Andie Goes to Prom
01:28:41.000 : en:Everyone is at Prom
01:32:41.000 : en:Andie & Blane Reconcile
01:33:21.000 : en:End Credits


资源速度为零或资源敏感被和谐时,推荐使用qBittorrent等下载软件,有条件的推荐115更好的下载软件!

下载地址:


游客,如果您要查看本帖隐藏内容请回复





上一篇:纳什维尔 / Nashville (1975) 4K高清版本下载
下一篇:罗宾汉与玛莉安 / Robin and Marian (1976) 4K高清版本下载
回复

使用道具 举报

61

主题

1494

帖子

4306

积分

4K家园VIP

Rank: 9Rank: 9Rank: 9

积分
4306
发表于 2022-6-20 10:19:18 | 显示全部楼层
谢谢楼主
回复 支持 反对

使用道具 举报

54

主题

1486

帖子

4304

积分

4K家园VIP

Rank: 9Rank: 9Rank: 9

积分
4304
发表于 2022-6-22 04:15:03 来自手机 | 显示全部楼层
哈哈,我只看看不说话
回复 支持 反对

使用道具 举报

1

主题

1331

帖子

4013

积分

4K家园VIP

Rank: 9Rank: 9Rank: 9

积分
4013
发表于 2022-6-30 04:50:31 | 显示全部楼层
我也顶起出售广告位
回复 支持 反对

使用道具 举报

0

主题

3

帖子

12

积分

新手上路

Rank: 1

积分
12
发表于 2022-6-30 09:45:14 来自手机 | 显示全部楼层
66666
回复

使用道具 举报

1

主题

1427

帖子

4125

积分

4K家园VIP

Rank: 9Rank: 9Rank: 9

积分
4125
发表于 2022-7-1 17:07:39 来自手机 | 显示全部楼层
有4K版卡,下个看下
回复 支持 反对

使用道具 举报

2

主题

1426

帖子

4130

积分

中级会员

Rank: 4

积分
4130
发表于 2022-7-5 23:05:40 | 显示全部楼层
顶起顶起顶起
回复 支持 反对

使用道具 举报

您需要登录后才可以回帖 登录 | 立即注册

本版积分规则

精彩图文
Archiver|手机版|TAG|Sitemap|新帖|专题|联系我们:邮箱: 4kjia.com@gmail.com   

4k家园   ©2019