[4K电影] 下雪的日子 / Snow Day (2000) 4K高清版本下载

[复制链接]

1868

主题

2007

帖子

1万

积分

超级版主

Rank: 8Rank: 8

积分
15027
 楼主| 发表于 2022-6-20 10:42:40 | 显示全部楼层 |阅读模式
QQ图片20220620103032_副本.png

◎译  名 下雪的日子/雪地假期/下雪天/下雪日/白雪奇迹
◎片  名 Snow Day
◎年  代 2000
◎产  地 美国
◎类  别 喜剧/爱情/家庭/冒险
◎语  言 英语
◎上映日期 2000-02-11
◎IMDb评分  5.1/10 from 12594 users
◎IMDb链接  https://www.imdb.com/title/tt0184907/
◎豆瓣评分 6.5/10 from 94 users
◎豆瓣链接 https://movie.douban.com/subject/1295558/
◎导  演 克里斯·科赫 Chris Koch
◎编  剧 威尔·麦克罗伯 Will McRobb
◎主  演 马克·韦伯 Mark Webber
       泽娜·格雷 Zena Grey
       埃曼纽尔·施莱琪 Emmanuelle Chriqui
       克里斯·艾略特 Chris Elliott
       珍·斯马特 Jean Smart
       伊基·波普 Iggy Pop
       帕姆·格里尔 Pam Grier
       约翰·施奈德 John Schneider
       切维·切斯 Chevy Chase
       乔希·佩克 Josh Peck
       贾德·约克 Jade Yorker
       康纳·马修斯 Connor Matheus
       J. 亚当·布朗  J. Adam Brown
       大卫·佩特考 David Paetkau
       凯瑟琳·伊莎贝尔 Katharine Isabelle
       卡莉·波普 Carly Pope
       斯科勒·费斯科 Schuyler Fisk


◎简  介


  没有什么时候比下雪天更酷的了,它又好象是什么人给你的最好的生日礼物,尽管此时并不是你的生日。下雪天就意味着不用上学,没有了约束和无穷无尽的乐趣。
  对于哈尔和纳塔列.布郎德斯通来说,下雪天里什么事情都可能发生。哈尔15岁了,在这个雪天,他决定向他的的梦中情人,高中生克莱尔.伯纳宣布他对她的爱慕之情,哪怕她可能根本没有在意过他的存在,哪怕他要面对她的那个准男朋友-库克.维勒的竞争。下雪天充满魔力,在哈尔的伙伴比尔和拉尼的支持下,这一天注定将要永远改变他一生的命运。而此时他10岁的妹妹也正在酝酿着她的一个计划……
  当太阳升起在这壮丽的雪天时,哈尔是否将与克莱尔拥抱在一起呢,这是在情人节到来之际,献给你的一部最酷的喜剧片。
Video
ID : 1
Format : HEVC
Format/Info : High Efficiency Video Coding
Format profile : Main 10@L5@Main
HDR format : SMPTE ST 2094 App 4, Version 1, HDR10+ Profile B compatible
Codec ID : V_MPEGH/ISO/HEVC
Duration : 1 h 29 min
Bit rate : 14.9 Mb/s
Width : 3 840 pixels
Height : 2 080 pixels
Display aspect ratio : 1.85:1
Frame rate mode : Constant
Frame rate : 23.976 (24000/1001) FPS
Color space : YUV
Chroma subsampling : 4:2:0
Bit depth : 10 bits
Bits/(Pixel*Frame) : 0.078
Stream size : 9.29 GiB (96%)
Language : English
Default : Yes
Forced : No
Color range : Limited
Color primaries : BT.2020
Transfer characteristics : PQ
Matrix coefficients : BT.2020 non-constant
Mastering display color primaries : Display P3
Mastering display luminance : min: 0.0001 cd/m2, max: 1000 cd/m2
Maximum Content Light Level : 1000 cd/m2
Maximum Frame-Average Light Level : 269 cd/m2

Audio
ID : 2
Format : E-AC-3
Format/Info : Enhanced AC-3
Commercial name : Dolby Digital Plus
Codec ID : A_EAC3
Duration : 1 h 29 min
Bit rate mode : Constant
Bit rate : 640 kb/s
Channel(s) : 6 channels
Channel layout : L R C LFE Ls Rs
Sampling rate : 48.0 kHz
Frame rate : 31.250 FPS (1536 SPF)
Compression mode : Lossy
Stream size : 408 MiB (4%)
Language : English
Service kind : Complete Main
Default : Yes
Forced : No

Text
ID : 3
Format : UTF-8
Codec ID : S_TEXT/UTF8
Codec ID/Info : UTF-8 Plain Text
Duration : 1 h 28 min
Bit rate : 75 b/s
Count of elements : 1251
Stream size : 49.0 KiB (0%)
Title : SDH
Language : English
Default : No
Forced : No

资源速度为零或资源敏感被和谐时,推荐使用qBittorrent等下载软件,有条件的推荐115更好的下载软件!

下载地址:

游客,如果您要查看本帖隐藏内容请回复






上一篇:罗宾汉与玛莉安 / Robin and Marian (1976) 4K高清版本下载
下一篇:大寒 / The Big Chill (1983) 4K高清版本下载
回复

使用道具 举报

4

主题

1428

帖子

4120

积分

中级会员

Rank: 4

积分
4120
发表于 2022-6-20 10:42:45 | 显示全部楼层
为毛老子总也抢不到沙发?!!
回复 支持 反对

使用道具 举报

0

主题

1229

帖子

3701

积分

4K家园VIP

Rank: 9Rank: 9Rank: 9

积分
3701
发表于 2022-6-20 10:42:45 | 显示全部楼层
鼎力支持!!
回复 支持 反对

使用道具 举报

2

主题

1345

帖子

3889

积分

4K家园VIP

Rank: 9Rank: 9Rank: 9

积分
3889
发表于 6 天前 | 显示全部楼层
打酱油的人拉,回复下赚取积分
回复 支持 反对

使用道具 举报

1

主题

1395

帖子

4039

积分

4K家园VIP

Rank: 9Rank: 9Rank: 9

积分
4039
发表于 昨天 21:15 | 显示全部楼层
都不知道说的啥
回复 支持 反对

使用道具 举报

您需要登录后才可以回帖 登录 | 立即注册

本版积分规则

精彩图文
Archiver|手机版|TAG|Sitemap|新帖|专题|联系我们:邮箱: 4kjia.com@gmail.com   

4k家园   ©2019