[4K电影] 大寒 / The Big Chill (1983) 4K高清版本下载

[复制链接]

2299

主题

2448

帖子

1万

积分

超级版主

Rank: 8Rank: 8

积分
17752
 楼主| 发表于 2022-6-20 11:07:06 | 显示全部楼层 |阅读模式
本帖最后由 没完没了 于 2022-6-20 12:04 编辑

QQ图片20220620105235_副本.png

◎译  名 大寒/山水又相逢
◎片  名 The Big Chill
◎年  代 1983
◎国  家 美国
◎类  别 喜剧/剧情
◎语  言 英语
◎上映日期 1983-09-09
◎IMDb评分  7.1/10 from 37216 users
◎IMDb链接  http://www.imdb.com/title/tt0085244/
◎豆瓣评分 6.8/10 from 831 users
◎豆瓣链接 http://movie.douban.com/subject/1293796/
◎片  长 105 分钟
◎导  演 劳伦斯·卡斯丹 Lawrence Kasdan
◎主  演 格伦·克洛斯 Glenn Close
       威廉·赫特 William Hurt
       凯文·克莱恩 Kevin Kline
       杰夫·高布伦 Jeff Goldblum
       汤姆·贝伦杰 Tom Berenger
       玛丽·凯·普莱斯 Mary Kay Place
       梅格·提利 Meg Tilly
       乔贝兹·威廉姆斯 JoBeth Williams


◎简  介


  本片探讨七个大学室友从1960年代起的成长经历。大学毕业後,大家各奔前程,有的成为企业巨子,有的成为八卦报新闻记者,有人成为电视台星探、有的成为药商、有的则当了医生、有的成为律师、也有人成为家庭主妇。这次,在一个朋友的葬礼上,他们再次聚首,重新审视自己的人生。(via 人人影视)


◎获奖情况

  第56届奥斯卡金像奖 (1984)
  最佳影片(提名) 迈克尔·山姆伯格
  最佳女配角(提名) 格伦·克洛斯
  最佳原创剧本(提名) 劳伦斯·卡斯丹 / Barbara Benedek
Video
ID : 1
Format : HEVC
Format/Info : High Efficiency Video Coding
Format profile : Main@L5@Main
Codec ID : V_MPEGH/ISO/HEVC
Duration : 1 h 45 min
Bit rate : 14.8 Mb/s
Width : 3 840 pixels
Height : 2 080 pixels
Display aspect ratio : 1.85:1
Frame rate mode : Constant
Frame rate : 23.976 (24000/1001) FPS
Standard : NTSC
Color space : YUV
Chroma subsampling : 4:2:0
Bit depth : 8 bits
Bits/(Pixel*Frame) : 0.077
Stream size : 10.8 GiB (75%)
Writing library : x265 2.9_elemental+1-9e0607aa5b6f:[Linux][GCC 4.8.5][64 bit] 8bit+10bit+12bit
Encoding settings : cpuid=1111039 / frame-threads=2 / wpp / no-pmode / no-pme / psnr / ssim / log-level=2 / csv / csv-log-level=2 / input-csp=1 / input-res=3840x2080 / interlace=0 / total-frames=0 / level-idc=50 / high-tier=1 / uhd-bd=0 / ref=5 / no-allow-non-conformance / no-repeat-headers / annexb / no-aud / no-hrd / info / hash=0 / no-temporal-layers / no-open-gop / min-keyint=61 / keyint=120 / gop-lookahead=0 / bframes=8 / b-adapt=2 / b-pyramid / bframe-bias=0 / rc-lookahead=120 / lookahead-slices=4 / scenecut=0 / radl=0 / no-intra-refresh / ctu=64 / min-cu-size=8 / rect / amp / max-tu-size=32 / tu-inter-depth=4 / tu-intra-depth=4 / limit-tu=4 / rdoq-level=2 / dynamic-rd=0.00 / no-ssim-rd / signhide / tskip / nr-intra=100 / nr-inter=600 / no-constrained-intra / strong-intra-smoothing / max-merge=3 / limit-refs=3 / limit-modes / me=3 / subme=3 / merange=57 / temporal-mvp / weightp / weightb / no-analyze-src-pics / deblock=0:0 / no-sao / no-sao-non-deblock / rd=4 / no-early-skip / no-rskip / no-fast-intra / tskip-fast / no-cu-lossless / b-intra / no-splitrd-skip / rdpenalty=0 / psy-rd=4.00 / psy-rdoq=10.00 / no-rd-refine / no-lossless / cbqpoffs=0 / crqpoffs=0 / rc=crf / crf=25.0 / qcomp=0.60 / qpstep=1 / stats-write=0 / stats-read=0 / vbv-maxrate=15000 / vbv-bufsize=20000 / vbv-init=0.9 / crf-max=0.0 / crf-min=0.0 / ipratio=1.10 / pbratio=1.00 / aq-mode=0 / aq-strength=1.50 / no-cutree / zone-count=0 / no-strict-cbr / qg-size=32 / rc-grain / qpmax=69 / qpmin=0 / const-vbv / sar=255 / sar-width / : / sar-height=481:480 / overscan=0 / videoformat=2 / range=0 / colorprim=1 / transfer=1 / colormatrix=1 / chromaloc=0 / display-window=0 / max-cll=0,0 / min-luma=0 / max-luma=255 / log2-max-poc-lsb=8 / vui-timing-info / vui-hrd-info / slices=1 / opt-qp-pps / no-opt-ref-list-length-pps / no-multi-pass-opt-rps / scenecut-bias=0.05 / no-opt-cu-delta-qp / no-aq-motion / no-hdr / no-hdr-opt / no-dhdr10-opt / no-idr-recovery-sei / analysis-reuse-level=5 / scale-factor=0 / refine-intra=0 / refine-inter=0 / refine-mv=0 / no-limit-sao / ctu-info=0 / no-lowpass-dct / refine-mv-type=0 / copy-pic=1 / max-ausize-factor=1.0 / no-dynamic-refine / no-single-sei
Language : English
Default : Yes
Forced : No
Color range : Limited
Color primaries : BT.709
Transfer characteristics : BT.709
Matrix coefficients : BT.709

Audio #1
ID : 2
Format : DTS XLL
Format/Info : Digital Theater Systems
Commercial name : DTS-HD Master Audio
Codec ID : A_DTS
Duration : 1 h 45 min
Bit rate mode : Variable
Bit rate : 3 623 kb/s
Channel(s) : 6 channels
Channel layout : C L R Ls Rs LFE
Sampling rate : 48.0 kHz
Frame rate : 93.750 FPS (512 SPF)
Bit depth : 24 bits
Compression mode : Lossless
Delay relative to video : 2 ms
Stream size : 2.66 GiB (18%)
Title : DTS-HD Master Audio / 5.1 / 48 kHz / 3620 kbps / 24-bit
Language : English
Default : Yes
Forced : No

Audio #2
ID : 3
Format : E-AC-3
Format/Info : Enhanced AC-3
Commercial name : Dolby Digital Plus
Codec ID : A_EAC3
Duration : 1 h 45 min
Bit rate mode : Constant
Bit rate : 640 kb/s
Channel(s) : 6 channels
Channel layout : L R C LFE Ls Rs
Sampling rate : 48.0 kHz
Frame rate : 31.250 FPS (1536 SPF)
Compression mode : Lossy
Stream size : 481 MiB (3%)
Language : English
Service kind : Complete Main
Default : Yes
Forced : No

Audio #3
ID : 4
Format : FLAC
Format/Info : Free Lossless Audio Codec
Codec ID : A_FLAC
Duration : 1 h 45 min
Bit rate mode : Variable
Bit rate : 682 kb/s
Channel(s) : 1 channel
Channel layout : C
Sampling rate : 48.0 kHz
Frame rate : 11.719 FPS (4096 SPF)
Bit depth : 24 bits
Compression mode : Lossless
Delay relative to video : 44 ms
Stream size : 513 MiB (3%)
Title : Original Monaural / FLAC Audio / 1.0 / 48 kHz / 681 kbps / 24-bit
Writing library : libFLAC 1.2.1 (UTC 2007-09-17)
Language : English
Default : No
Forced : No

Text #1
ID : 5
Format : UTF-8
Codec ID : S_TEXT/UTF8
Codec ID/Info : UTF-8 Plain Text
Duration : 1 h 44 min
Bit rate : 72 b/s
Count of elements : 1788
Stream size : 56.1 KiB (0%)
Title : SDH
Language : English
Default : Yes
Forced : No

Text #2
ID : 6
Format : PGS
Muxing mode : zlib
Codec ID : S_HDMV/PGS
Codec ID/Info : Picture based subtitle format used on BDs/HD-DVDs
Duration : 1 h 44 min
Bit rate : 73.3 kb/s
Count of elements : 3320
Stream size : 55.0 MiB (0%)
Language : English
Default : No
Forced : No

Menu
00:00:00.000 : en:Studio Logos
00:00:23.000 : en:Opening Credits
00:01:39.000 : en:Opening Credits
00:04:58.000 : en:Guests are greeted at the funeral, parking lot
00:06:31.000 : en:Funeral service takes place, church
00:08:55.000 : en:Nick arrives late, church
00:10:30.000 : en:Harold gives eulogy, church
00:13:39.000 : en:Everyone drives to the burial, street
00:15:41.000 : en:Guests arrive at the burial, cemetery
00:19:29.000 : en:Guests arrive at the funeral reception, house
00:21:56.000 : en:Friends reminisce & cope, house
00:24:52.000 : en:Everyone gets ready for bed, house
00:28:05.000 : en:Friends catch up, living room
00:30:45.000 : en:Meg goes to Nick's bedroom, bedroom
00:32:55.000 : en:A bat is trapped in the attic, attic
00:35:59.000 : en:Sam & Nick & Richard have a conversation, kitchen
00:37:49.000 : en:Nick & Harold go for a run, town
00:40:04.000 : en:Sarah & Michael, kitchen
00:41:59.000 : en:Nick tapes himself, living room
00:43:42.000 : en:Friends drive & talk about upcoming night club, car
00:45:57.000 : en:Sam & Karen shop, grocery store
00:46:55.000 : en:Harold & Michael take a hike, woods
00:49:33.000 : en:Sam is on TV, living room
00:52:21.000 : en:Everyone has dinner, dining room
00:55:11.000 : en:Everyone cleans up & dances, kitchen
00:57:58.000 : en:Meg asks Sam to have a child, bedroom
01:00:16.000 : en:Michael passes out & Chloe talks to Nick living room
01:02:39.000 : en:Sam & Nick & Harold run & talk about Alex, road
01:03:58.000 : en:Nick tries on new shoes, kitchen
01:06:54.000 : en:Karen talks about her life, pier
01:09:56.000 : en:Everyone watches college football, living Room
01:13:02.000 : en:Chloe plays football with guys, yard
01:16:28.000 : en:Cop follows Nick, house
01:18:54.000 : en:Nick films Chloe, living room
01:20:09.000 : en:Karen flirts with Sam, yard
01:22:33.000 : en:Everyone has chinese food dinner, dining room
01:26:14.000 : en:Reminiscing about Alex, living room
01:30:07.000 : en:Sam & Nick fight about friendship, living room
01:33:07.000 : en:Everybody pairs up, multiple locations
01:35:45.000 : en:Chloe cries, closet
01:37:52.000 : en:Nick goes through Alex's papers, cabin
01:39:54.000 : en:Everyone has breakfast together, kitchen
01:41:55.000 : en:End Credits

资源速度为零或资源敏感被和谐时,推荐使用qBittorrent等下载软件,有条件的推荐115更好的下载软件!

下载地址:

游客,如果您要查看本帖隐藏内容请回复





上一篇:下雪的日子 / Snow Day (2000) 4K高清版本下载
下一篇:往日情怀 (繁体中字)/ The Way We Were (1973) 4K高清版本下载
回复

使用道具 举报

0

主题

1366

帖子

3920

积分

4K家园VIP

Rank: 9Rank: 9Rank: 9

积分
3920
发表于 2022-6-20 11:07:10 | 显示全部楼层
啊啊啊啊啊啊啊啊啊啊啊
回复 支持 反对

使用道具 举报

0

主题

125

帖子

6101

积分

高级会员

Rank: 3Rank: 3

积分
6101
发表于 2022-6-20 13:18:06 | 显示全部楼层

儿时美好的回忆
回复 支持 反对

使用道具 举报

40

主题

1509

帖子

4343

积分

4K家园VIP

Rank: 9Rank: 9Rank: 9

积分
4343
发表于 2022-6-20 17:16:45 | 显示全部楼层
感谢楼主的分享,还是阔以滴
回复 支持 反对

使用道具 举报

51

主题

1526

帖子

4398

积分

4K家园VIP

Rank: 9Rank: 9Rank: 9

积分
4398
发表于 2022-6-22 14:33:22 | 显示全部楼层
为了三千积分!
回复 支持 反对

使用道具 举报

2

主题

1629

帖子

4487

积分

4K家园VIP

Rank: 9Rank: 9Rank: 9

积分
4487
发表于 2022-6-22 16:51:00 来自手机 | 显示全部楼层
前排支持下
回复 支持 反对

使用道具 举报

1

主题

1314

帖子

3968

积分

4K家园VIP

Rank: 9Rank: 9Rank: 9

积分
3968
发表于 2022-6-23 04:35:10 | 显示全部楼层
OMG!介是啥东东!!!
回复 支持 反对

使用道具 举报

您需要登录后才可以回帖 登录 | 立即注册

本版积分规则

精彩图文
Archiver|手机版|TAG|Sitemap|新帖|专题|联系我们:邮箱: 4kjia.com@gmail.com   

4k家园   ©2019