[4K电影] 世上最快的印第安摩托 (2005) 4K高清版本下载

[复制链接]

1868

主题

2007

帖子

1万

积分

超级版主

Rank: 8Rank: 8

积分
15027
 楼主| 发表于 7 天前 | 显示全部楼层 |阅读模式
QQ图片20220620110012_副本.png

◎译  名 世上最快的印第安摩托/向极速出发/超速先生(台)/世界上跑得最快的印第安人/世上最快的印地安摩托
◎片  名 The World's Fastest Indian
◎年  代 2005
◎产  地 新西兰/日本/美国
◎类  别 剧情/传记/运动
◎语  言 英语
◎上映日期 2005-10-13(新西兰)
◎IMDb评分  7.8/10 from 54714 users
◎IMDb链接  https://www.imdb.com/title/tt0412080/
◎豆瓣评分 8.9/10 from 14773 users
◎豆瓣链接 https://movie.douban.com/subject/1449711/
◎导  演 罗杰·唐纳森 Roger Donaldson
◎编  剧 罗杰·唐纳森 Roger Donaldson
◎主  演 安东尼·霍普金斯 Anthony Hopkins
       艾伦·墨菲 Aaron Murphy
       蒂姆·夏伯特 Tim Shadbolt
       安妮·怀特尔 Annie Whittle
       格雷格·约翰逊 Greg Johnson
       安东尼·斯塔尔 Antony Starr
       克里格·霍尔 Craig Hall
       艾莉森·布鲁斯 Alison Bruce
       卫斯理·道德尔 Wesley Dowdell
       托德·艾默森 Todd Emerson
       丹尼尔·兴 Daniel Sing
       坎贝尔·库利 Campbell Cooley
       詹姆斯·盖林 James Gaylyn
       莱瑟姆·盖恩斯 Latham Gaines
       史蒂夫·奥尼尔 Steve O'Neill
       卡洛斯·拉卡马拉 Carlos Lacamara
       克里斯·威廉斯 Chris Williams
       克里斯汀·玛丽·詹森 Kristen Marie Jensen
       保罗·罗德里奇斯 Paul Rodriguez
       汤姆·雅各布森 Tom Jacobsen
       大卫·H·史蒂文斯 David H. Stevens
       查尔斯·哈尔福德 Charles Halford
       萨吉诺·格兰特 Saginaw Grant
       戴安·拉德 Diane Ladd
       摩根·伦德 Morgan Lund
       帕特里克·约翰·弗吕格 Patrick John Flueger
       克里斯多福·劳福德 Christopher Lawford
       加文·格雷泽 Gavin Grazer
       布鲁斯·格林伍德 Bruce Greenwood
       迈克尔·曼特尔 Michael Mantell
       尼古拉斯·拉尼尔 Nicholas Lanier
       威廉姆·拉金 William Lucking
       沃尔顿·戈金斯 Walton Goggins
       埃里克·皮尔波特 Eric Pierpoint
       杰西卡·卡普肖 Jessica Cauffiel
       克里斯·布鲁诺 Chris Bruno
       乔·霍华德 Joe Howard
       约瑟夫·丹尼尔·汉密尔顿 Joseph Daniel Hamilton
       吉姆·杰普森 Jim Jepson
       托马斯·麦克明 Thomas McMinn
       蒂姆·萨布科 Tim Sabuco

◎简  介

  电影改编自世界著名摩托车手伯特·孟若的生平,真实而又生动的再现了一代传奇车手跌宕起伏的一生。故事开始于1899年,孟若(安东尼·霍普金斯 Anthony Hopkins 饰)降生到了这个世界上,从小体弱多病的他甚至被医生下达过“死亡通知书”,但幸运的是,孟若还是顺利的长大了。

  1915年,孟若有了自己的第一辆摩托车,从此开启了与风竞速的生涯,直到七十二岁那一年,孟若依然没有放弃自己曾经的梦想。他改装了二十年代购入的印第安牌侦查摩托车,从新西兰骑往美国。一路上,孟若结识了易装癖者蒂娜(克里斯·威廉斯 Chris Williams 饰)、寡妇艾达(戴安·拉德 Diane Ladd 饰)、销售员佛兰多(保罗·罗德里奇斯 Paul Rodriguez 饰)等一干有趣的朋友们,在他们的帮助和鼓励下最终创下了新的世界纪录。
Video
ID : 1
Format : HEVC
Format/Info : High Efficiency Video Coding
Format profile : Main 10@L5@Main
HDR format : SMPTE ST 2094 App 4, Version 1, HDR10+ Profile B compatible
Codec ID : V_MPEGH/ISO/HEVC
Duration : 2 h 6 min
Bit rate : 15.0 Mb/s
Width : 3 840 pixels
Height : 1 632 pixels
Display aspect ratio : 2.35:1
Frame rate mode : Constant
Frame rate : 23.976 (24000/1001) FPS
Color space : YUV
Chroma subsampling : 4:2:0
Bit depth : 10 bits
Bits/(Pixel*Frame) : 0.100
Stream size : 13.3 GiB (96%)
Language : English
Default : Yes
Forced : No
Color range : Limited
Color primaries : BT.2020
Transfer characteristics : PQ
Matrix coefficients : BT.2020 non-constant
Mastering display color primaries : Display P3
Mastering display luminance : min: 0.0050 cd/m2, max: 4000 cd/m2
Maximum Content Light Level : 9972 cd/m2
Maximum Frame-Average Light Level : 1158 cd/m2

Audio
ID : 2
Format : E-AC-3
Format/Info : Enhanced AC-3
Commercial name : Dolby Digital Plus
Codec ID : A_EAC3
Duration : 2 h 6 min
Bit rate mode : Constant
Bit rate : 640 kb/s
Channel(s) : 6 channels
Channel layout : L R C LFE Ls Rs
Sampling rate : 48.0 kHz
Frame rate : 31.250 FPS (1536 SPF)
Compression mode : Lossy
Stream size : 581 MiB (4%)
Language : English
Service kind : Complete Main
Default : Yes
Forced : No

Text
ID : 3
Format : UTF-8
Codec ID : S_TEXT/UTF8
Codec ID/Info : UTF-8 Plain Text
Duration : 2 h 6 min
Bit rate : 70 b/s
Count of elements : 2471
Stream size : 65.9 KiB (0%)
Title : SDH
Language : English
Default : No
Forced : No

资源速度为零或资源敏感被和谐时,推荐使用qBittorrent等下载软件,有条件的推荐115更好的下载软件!

下载地址:

游客,如果您要查看本帖隐藏内容请回复





上一篇:往日情怀 (繁体中字)/ The Way We Were (1973) 4K高清版本下载
下一篇:少年邦(简繁粤中字)Boys State (2022) 4K高清版本下载
回复

使用道具 举报

48

主题

1528

帖子

4456

积分

4K家园VIP

Rank: 9Rank: 9Rank: 9

积分
4456
发表于 7 天前 | 显示全部楼层
怎么这么大,希望我电视能看啊
回复 支持 反对

使用道具 举报

4

主题

1374

帖子

4144

积分

4K家园VIP

Rank: 9Rank: 9Rank: 9

积分
4144
发表于 3 天前 | 显示全部楼层
顶起顶起顶起
回复 支持 反对

使用道具 举报

您需要登录后才可以回帖 登录 | 立即注册

本版积分规则

精彩图文
Archiver|手机版|TAG|Sitemap|新帖|专题|联系我们:邮箱: 4kjia.com@gmail.com   

4k家园   ©2019