[4K MV] 2022 GOT - Step Back(后退一步) [2160P/MP4/1.52GB]

[复制链接]

2800

主题

3162

帖子

2万

积分

超级版主

Rank: 8Rank: 8

积分
26550
 楼主| 发表于 7 天前 | 显示全部楼层 |阅读模式
本帖最后由 叽里呱啦 于 2022-6-20 14:26 编辑

【4Kjia】GOT - Step Back(后退一步)alang.mp4_20220620_124841.068.jpg 【4Kjia】GOT - Step Back(后退一步)alang.mp4_20220620_124855.468.jpg 【4Kjia】GOT - Step Back(后退一步)alang.mp4_20220620_124932.908.jpg 【4Kjia】GOT - Step Back(后退一步)alang.mp4_20220620_124943.812.jpg 【4Kjia】GOT - Step Back(后退一步)alang.mp4_20220620_124957.364.jpg 【4Kjia】GOT - Step Back(后退一步)alang.mp4_20220620_125003.820.jpg

General
Format                         : MPEG-4
Format profile                 : Base Media / Version 2
Codec ID                       : mp42 (mp42/mp41)
File size                      : 1.52 GiB
Duration                       : 4 min 16 s
Overall bit rate mode          : Variable
Overall bit rate               : 51.0 Mb/s
Encoded date                   : UTC 2022-02-11 16:32:36
Tagged date                    : UTC 2022-02-11 16:32:44
TIM                            : 00:00:00:00
TSC                            : 30000
TSZ                            : 1001

Video
ID                             : 1
Format                         : AVC
Format/Info                    : Advanced Video Codec
Format profile                 : Main@L5.1
Format settings                : CABAC / 3 Ref Frames
Format settings, CABAC         : Yes
Format settings, Reference fra : 3 frames
Codec ID                       : avc1
Codec ID/Info                  : Advanced Video Coding
Duration                       : 4 min 16 s
Bit rate                       : 50.6 Mb/s
Width                          : 3 840 pixels
Height                         : 2 160 pixels
Display aspect ratio           : 16:9
Frame rate mode                : Constant
Frame rate                     : 29.970 (30000/1001) FPS
Color space                    : YUV
Chroma subsampling             : 4:2:0
Bit depth                      : 8 bits
Scan type                      : Progressive
Bits/(Pixel*Frame)             : 0.204
Stream size                    : 1.51 GiB (99%)
Language                       : English
Encoded date                   : UTC 2022-02-11 16:32:36
Tagged date                    : UTC 2022-02-11 16:32:36
Codec configuration box        : avcC

Audio
ID                             : 2
Format                         : AAC LC
Format/Info                    : Advanced Audio Codec Low Complexity
Codec ID                       : mp4a-40-2
Duration                       : 4 min 16 s
Source duration                : 4 min 16 s
Bit rate mode                  : Variable
Bit rate                       : 317 kb/s
Maximum bit rate               : 467 kb/s
Channel(s)                     : 2 channels
Channel layout                 : L R
Sampling rate                  : 48.0 kHz
Frame rate                     : 46.875 FPS (1024 SPF)
Compression mode               : Lossy
Stream size                    : 9.71 MiB (1%)
Source stream size             : 9.71 MiB (1%)
Language                       : English
Encoded date                   : UTC 2022-02-11 16:32:36
Tagged date                    : UTC 2022-02-11 16:32:36

下载地址:

****此区域为收费内容****    需支付 15 金币后可查看立即购买

提供2010-2022年本人多年来珍藏优质[4K、8K、16K(25-120fps)] 高品质韩国(女团)MV、各种演示片、测试片等4K韩国MV“珍藏版”视频硬盘有偿拷贝或网盘分享,最新4K视频每天更新中,需要的联系本楼主!




上一篇:[4K MV] Joy(红色天鹅绒)-你好 [2160P/MP4/3.20GB]
下一篇:[4K MV] 玫瑰 - Gone 4K@60fps [2160P/MP4/564MB]
回复

使用道具 举报

1

主题

1281

帖子

3861

积分

4K家园VIP

Rank: 9Rank: 9Rank: 9

积分
3861
发表于 7 天前 | 显示全部楼层
楼主这资源不错,我收藏了
回复 支持 反对

使用道具 举报

2

主题

1677

帖子

4649

积分

4K家园VIP

Rank: 9Rank: 9Rank: 9

积分
4649
发表于 6 天前 | 显示全部楼层
感谢楼主发帖,前排顶起
回复 支持 反对

使用道具 举报

1

主题

1423

帖子

4079

积分

4K家园VIP

Rank: 9Rank: 9Rank: 9

积分
4079
发表于 6 天前 | 显示全部楼层
额.....这个可以有
回复 支持 反对

使用道具 举报

52

主题

1481

帖子

4273

积分

4K家园VIP

Rank: 9Rank: 9Rank: 9

积分
4273
发表于 6 天前 | 显示全部楼层
求沙发
回复 支持 反对

使用道具 举报

54

主题

1560

帖子

4454

积分

4K家园VIP

Rank: 9Rank: 9Rank: 9

积分
4454
发表于 5 天前 | 显示全部楼层
站位支持
回复 支持 反对

使用道具 举报

您需要登录后才可以回帖 登录 | 立即注册

本版积分规则

精彩图文
Archiver|手机版|TAG|Sitemap|新帖|专题|联系我们:邮箱: 4kjia.com@gmail.com   

4k家园   ©2019