[4Kjia独享4K资源] [纪录片] 加勒比珍惜的野生动物 50fps (2018) 4K高清版本下载

[复制链接]

2825

主题

3188

帖子

2万

积分

超级版主

Rank: 8Rank: 8

积分
26888
 楼主| 发表于 2022-7-2 15:18:07 | 显示全部楼层 |阅读模式
本帖最后由 叽里呱啦 于 2022-7-5 18:47 编辑

【4Kjia】2018 加勒比珍惜的野生动物4K.mkv_20220620_131723.024.jpg 【4Kjia】2018 加勒比珍惜的野生动物4K.mkv_20220620_131746.023.jpg 【4Kjia】2018 加勒比珍惜的野生动物4K.mkv_20220620_131838.023.jpg 【4Kjia】2018 加勒比珍惜的野生动物4K.mkv_20220620_131912.063.jpg 【4Kjia】2018 加勒比珍惜的野生动物4K.mkv_20220620_131920.518.jpg 【4Kjia】2018 加勒比珍惜的野生动物4K.mkv_20220620_131932.103.jpg 【4Kjia】2018 加勒比珍惜的野生动物4K.mkv_20220620_131942.639.jpg 【4Kjia】2018 加勒比珍惜的野生动物4K.mkv_20220620_132050.519.jpg 【4Kjia】2018 加勒比珍惜的野生动物4K.mkv_20220620_132115.447.jpg 【4Kjia】2018 加勒比珍惜的野生动物4K.mkv_20220620_132122.679.jpg 【4Kjia】2018 加勒比珍惜的野生动物4K.mkv_20220620_132149.623.jpg 【4Kjia】2018 加勒比珍惜的野生动物4K.mkv_20220620_132212.503.jpg

◎译  名 加勒比珍惜的野生动物
◎片  名 Caraïbes sauvages, les rivages de la biodiversité
◎年  代 2018
◎产  地 法国
◎类  别 纪录片 / 自然 / 动植物
◎语  言 俄语
◎上映日期 2018
◎片  长 49 分钟
◎导  演 弗兰克·德克卢塞特 Franck Decluzet

Video
ID                             : 1
Format                         : HEVC
Format/Info                    : High Efficiency Video Coding
Format profile                 : Main 10@L5.1@Main
Codec ID                       : V_MPEGH/ISO/HEVC
Duration                       : 49 min 10 s
Bit rate                       : 15.2 Mb/s
Width                          : 3 840 pixels
Height                         : 2 160 pixels
Display aspect ratio           : 16:9
Frame rate mode                : Constant
Frame rate                     : 50.000 FPS
Standard                       : Component
Color space                    : YUV
Chroma subsampling             : 4:2:0 (Type 0)
Bit depth                      : 10 bits
Bits/(Pixel*Frame)             : 0.037
Stream size                    : 5.22 GiB (99%)
Default                        : Yes
Forced                         : No
Color range                    : Limited
Color primaries                : BT.709
Transfer characteristics       : BT.709
Matrix coefficients            : BT.709

Audio
ID                             : 2
Format                         : AAC LC
Format/Info                    : Advanced Audio Codec Low Complexity
Codec ID                       : A_AAC-2
Duration                       : 49 min 10 s
Bit rate                       : 192 kb/s
Channel(s)                     : 2 channels
Channel layout                 : L R
Sampling rate                  : 48.0 kHz
Frame rate                     : 46.875 FPS (1024 SPF)
Compression mode               : Lossy
Delay relative to video        : 124 ms
Stream size                    : 66.6 MiB (1%)
Language                       : Russian
Default                        : Yes
Forced                         : No

下载地址:

****此区域为收费内容****    需支付 30 金币后可查看立即购买

提供2010-2022年本人多年来珍藏优质[4K、8K、16K(25-120fps)] 高品质韩国(女团)MV、各种演示片、测试片等4K韩国MV“珍藏版”视频硬盘有偿拷贝或网盘分享,最新4K视频每天更新中,需要的联系本楼主!




上一篇:世上最快的印第安摩托 (2005) 4K高清版本下载
下一篇:少年邦(简繁粤中字)Boys State (2022) 4K高清版本下载
回复

使用道具 举报

2

主题

1373

帖子

3939

积分

4K家园VIP

Rank: 9Rank: 9Rank: 9

积分
3939
发表于 2022-7-2 15:18:13 | 显示全部楼层
不错 支持一个了
回复 支持 反对

使用道具 举报

2

主题

1374

帖子

3912

积分

4K家园VIP

Rank: 9Rank: 9Rank: 9

积分
3912
发表于 2022-7-3 03:03:20 | 显示全部楼层
元芳你怎么看?
回复 支持 反对

使用道具 举报

38

主题

1552

帖子

4436

积分

4K家园VIP

Rank: 9Rank: 9Rank: 9

积分
4436
发表于 2022-7-3 08:00:37 来自手机 | 显示全部楼层
多谢楼主分享
回复 支持 反对

使用道具 举报

46

主题

1453

帖子

4187

积分

4K家园VIP

Rank: 9Rank: 9Rank: 9

积分
4187
发表于 2022-7-3 13:04:36 | 显示全部楼层
啊啊啊啊啊啊啊啊啊啊啊
回复 支持 反对

使用道具 举报

51

主题

1534

帖子

4408

积分

4K家园VIP

Rank: 9Rank: 9Rank: 9

积分
4408
发表于 2022-7-3 16:06:39 | 显示全部楼层
楼猪V5啊
回复 支持 反对

使用道具 举报

0

主题

41

帖子

1829

积分

4K家园VIP

Rank: 9Rank: 9Rank: 9

积分
1829
发表于 2022-7-4 10:31:41 | 显示全部楼层
嗯,法国片讲俄语。。。嗯。。。有点意思。。
回复 支持 反对

使用道具 举报

您需要登录后才可以回帖 登录 | 立即注册

本版积分规则

精彩图文
Archiver|手机版|TAG|Sitemap|新帖|专题|联系我们:邮箱: 4kjia.com@gmail.com   

4k家园   ©2019