[4K MV] 玫瑰 - Gone 4K@60fps [2160P/MP4/564MB]

[复制链接]

2800

主题

3162

帖子

2万

积分

超级版主

Rank: 8Rank: 8

积分
26550
 楼主| 发表于 6 天前 | 显示全部楼层 |阅读模式
本帖最后由 叽里呱啦 于 2022-6-21 10:48 编辑

Rose - Gone.mp4_20220620_133908.456.jpg Rose - Gone.mp4_20220620_133917.560.jpg Rose - Gone.mp4_20220620_134031.568.jpg Rose - Gone.mp4_20220620_134037.200.jpg Rose - Gone.mp4_20220620_134046.961.jpg Rose - Gone.mp4_20220620_134114.232.jpg
General
Format                         : MPEG-4
Format profile                 : Base Media
Codec ID                       : isom (isom/iso2/mp41)
File size                      : 564 MiB
Duration                       : 2 min 5 s
Overall bit rate               : 37.6 Mb/s
Writing application            : Lavf58.20.100

Video
ID                             : 1
Format                         : HEVC
Format/Info                    : High Efficiency Video Coding
Format profile                 : Main 10@L6.2@High
Codec ID                       : hvc1
Codec ID/Info                  : High Efficiency Video Coding
Duration                       : 2 min 5 s
Bit rate                       : 37.2 Mb/s
Width                          : 3 840 pixels
Height                         : 2 160 pixels
Display aspect ratio           : 16:9
Frame rate mode                : Variable
Frame rate                     : 60.000 FPS
Minimum frame rate             : 59.942 FPS
Maximum frame rate             : 60.062 FPS
Color space                    : YUV
Chroma subsampling             : 4:2:0
Bit depth                      : 8 bits
Bits/(Pixel*Frame)             : 0.075
Stream size                    : 558 MiB (99%)
Color range                    : Limited
Color primaries                : BT.709
Transfer characteristics       : BT.709
Matrix coefficients            : BT.709
Codec configuration box        : hvcC

Audio
ID                             : 2
Format                         : AAC LC
Format/Info                    : Advanced Audio Codec Low Complexity
Codec ID                       : mp4a-40-2
Duration                       : 2 min 5 s
Bit rate mode                  : Constant
Bit rate                       : 384 kb/s
Channel(s)                     : 2 channels
Channel layout                 : L R
Sampling rate                  : 48.0 kHz
Frame rate                     : 46.875 FPS (1024 SPF)
Compression mode               : Lossy
Stream size                    : 5.80 MiB (1%)
Default                        : Yes
Alternate group                : 1

下载地址:

游客,如果您要查看本帖隐藏内容请回复

提供2010-2022年本人多年来珍藏优质[4K、8K、16K(25-120fps)] 高品质韩国(女团)MV、各种演示片、测试片等4K韩国MV“珍藏版”视频硬盘有偿拷贝或网盘分享,最新4K视频每天更新中,需要的联系本楼主!




上一篇:[4K MV] 2022 GOT - Step Back(后退一步) [2160P/MP4/1.52GB]
回复

使用道具 举报

0

主题

1656

帖子

4598

积分

4K家园VIP

Rank: 9Rank: 9Rank: 9

积分
4598
发表于 6 天前 | 显示全部楼层
4K家园不错,希望这种资源越多越好
回复 支持 反对

使用道具 举报

1

主题

1367

帖子

4115

积分

4K家园VIP

Rank: 9Rank: 9Rank: 9

积分
4115
发表于 5 天前 | 显示全部楼层
垃圾内容,路过为证。
回复 支持 反对

使用道具 举报

2

主题

1423

帖子

4089

积分

4K家园VIP

Rank: 9Rank: 9Rank: 9

积分
4089
发表于 4 天前 | 显示全部楼层
顶起出售广告位
回复 支持 反对

使用道具 举报

5

主题

1674

帖子

4600

积分

4K家园VIP

Rank: 9Rank: 9Rank: 9

积分
4600
发表于 4 天前 | 显示全部楼层
好,很好,非常好!
回复 支持 反对

使用道具 举报

0

主题

1458

帖子

4188

积分

4K家园VIP

Rank: 9Rank: 9Rank: 9

积分
4188
发表于 3 天前 | 显示全部楼层
看起来不错
回复 支持 反对

使用道具 举报

0

主题

30

帖子

396

积分

4K家园VIP

Rank: 9Rank: 9Rank: 9

积分
396
发表于 3 天前 | 显示全部楼层
没人做种  下了几天了才14% 昏倒
回复 支持 反对

使用道具 举报

0

主题

2

帖子

9

积分

新手上路

Rank: 1

积分
9
发表于 前天 19:37 | 显示全部楼层

看起来不错
回复 支持 反对

使用道具 举报

0

主题

2

帖子

13

积分

新手上路

Rank: 1

积分
13
发表于 1 小时前 | 显示全部楼层
非常感谢分享。
回复 支持 反对

使用道具 举报

您需要登录后才可以回帖 登录 | 立即注册

本版积分规则

精彩图文
Archiver|手机版|TAG|Sitemap|新帖|专题|联系我们:邮箱: 4kjia.com@gmail.com   

4k家园   ©2019