[4K MV] 玫瑰 - On the Ground 4K@60fps [2160P/MP4/815MB]

[复制链接]

2825

主题

3188

帖子

2万

积分

超级版主

Rank: 8Rank: 8

积分
26891
 楼主| 发表于 2022-6-27 10:42:01 | 显示全部楼层 |阅读模式
本帖最后由 叽里呱啦 于 2022-7-2 20:17 编辑

【4Kjia】玫瑰 - On the Ground.alang.mp4_20220620_135247.194.jpg 【4Kjia】玫瑰 - On the Ground.alang.mp4_20220620_135254.025.jpg 【4Kjia】玫瑰 - On the Ground.alang.mp4_20220620_135307.273.jpg 【4Kjia】玫瑰 - On the Ground.alang.mp4_20220620_135315.281.jpg 【4Kjia】玫瑰 - On the Ground.alang.mp4_20220620_135322.257.jpg 【4Kjia】玫瑰 - On the Ground.alang.mp4_20220620_135330.505.jpg

Video
ID                             : 1
Format                         : HEVC
Format/Info                    : High Efficiency Video Coding
Format profile                 : Main 10@L6.2@High
Codec ID                       : hvc1
Codec ID/Info                  : High Efficiency Video Coding
Duration                       : 2 min 51 s
Bit rate                       : 39.4 Mb/s
Width                          : 3 840 pixels
Height                         : 2 160 pixels
Display aspect ratio           : 16:9
Frame rate mode                : Variable
Frame rate                     : 60.000 FPS
Minimum frame rate             : 59.942 FPS
Maximum frame rate             : 60.062 FPS
Color space                    : YUV
Chroma subsampling             : 4:2:0
Bit depth                      : 8 bits
Bits/(Pixel*Frame)             : 0.079
Stream size                    : 807 MiB (99%)
Color range                    : Limited
Color primaries                : BT.709
Transfer characteristics       : BT.709
Matrix coefficients            : BT.709
Codec configuration box        : hvcC

Audio
ID                             : 2
Format                         : AAC LC
Format/Info                    : Advanced Audio Codec Low Complexity
Codec ID                       : mp4a-40-2
Duration                       : 2 min 51 s
Bit rate mode                  : Constant
Bit rate                       : 384 kb/s
Channel(s)                     : 2 channels
Channel layout                 : L R
Sampling rate                  : 48.0 kHz
Frame rate                     : 46.875 FPS (1024 SPF)
Compression mode               : Lossy
Stream size                    : 7.91 MiB (1%)
Default                        : Yes
Alternate group                : 1

下载地址:

****此区域为收费内容****    需支付 25 金币后可查看立即购买

提供2010-2022年本人多年来珍藏优质[4K、8K、16K(25-120fps)] 高品质韩国(女团)MV、各种演示片、测试片等4K韩国MV“珍藏版”视频硬盘有偿拷贝或网盘分享,最新4K视频每天更新中,需要的联系本楼主!



上一篇:[4K MV] 玫瑰 - Gone 4K@60fps [2160P/MP4/564MB]
下一篇:[4K MV] [4Kjia] 2020 Taeyeon - Happy (快乐!) [2160P/MP4/415MB]
回复

使用道具 举报

2

主题

1179

帖子

3559

积分

4K家园VIP

Rank: 9Rank: 9Rank: 9

积分
3559
发表于 2022-6-27 10:42:06 | 显示全部楼层
高手啊
回复 支持 反对

使用道具 举报

0

主题

1

帖子

6

积分

新手上路

Rank: 1

积分
6
发表于 2022-6-27 12:37:07 | 显示全部楼层

free online pron

free online pron
回复 支持 反对

使用道具 举报

0

主题

4

帖子

30

积分

新手上路

Rank: 1

积分
30
发表于 2022-6-27 13:23:26 | 显示全部楼层
看看四K的画面有多美。
回复 支持 反对

使用道具 举报

0

主题

1

帖子

6

积分

新手上路

Rank: 1

积分
6
发表于 2022-6-27 18:14:45 | 显示全部楼层
看看还能下不、
回复 支持 反对

使用道具 举报

0

主题

2

帖子

13

积分

新手上路

Rank: 1

积分
13
发表于 2022-6-27 18:27:02 | 显示全部楼层
回复
回复

使用道具 举报

0

主题

1

帖子

6

积分

新手上路

Rank: 1

积分
6
发表于 2022-6-27 18:32:50 | 显示全部楼层
想下载
回复

使用道具 举报

0

主题

2

帖子

9

积分

新手上路

Rank: 1

积分
9
发表于 2022-6-27 21:21:51 | 显示全部楼层
哈哈看着不错哦
回复 支持 反对

使用道具 举报

0

主题

10

帖子

69

积分

新手上路

Rank: 1

积分
69
发表于 2022-6-27 22:48:44 | 显示全部楼层
看看四K的画面
回复 支持 反对

使用道具 举报

0

主题

3

帖子

24

积分

4K家园VIP

Rank: 9Rank: 9Rank: 9

积分
24
发表于 2022-6-28 06:53:41 来自手机 | 显示全部楼层
有没有水印
回复 支持 反对

使用道具 举报

您需要登录后才可以回帖 登录 | 立即注册

本版积分规则

精彩图文
Archiver|手机版|TAG|Sitemap|新帖|专题|联系我们:邮箱: 4kjia.com@gmail.com   

4k家园   ©2019