[4K电影] 少年邦(简繁粤中字)Boys State (2022) 4K高清版本下载

[复制链接]

2299

主题

2448

帖子

1万

积分

超级版主

Rank: 8Rank: 8

积分
17752
 楼主| 发表于 2022-6-20 20:48:41 | 显示全部楼层 |阅读模式
QQ图片20220620201707_副本.png

◎译  名 少年邦/新世代公民(台)/新生代玩转政治(港)/男孩之州
◎片  名 Boys State
◎年  代 2020
◎产  地 美国
◎类  别 纪录片
◎语  言 英语
◎上映日期 2020-01-24(圣丹斯电影节) / 2020-08-14(美国)
◎IMDb评分  7.6/10 from 4983 users
◎IMDb链接  https://www.imdb.com/title/tt11095742/
◎豆瓣评分 7.8/10 from 1200 users
◎豆瓣链接 https://movie.douban.com/subject/34907430/
◎片  长 105分钟
◎导  演 阿曼达·麦克拜恩 Amanda McBaine / 杰西·莫斯 Jesse Moss


◎简  介

  故事讲述来自得克萨斯州的1000个17岁男孩参加了从零开始的代议制政府的故事。

◎获奖情况

  第36届圣丹斯电影节 ?(2020)
  评审团大奖纪录片

Video
ID : 1
Format : HEVC
Format/Info : High Efficiency Video Coding
Format profile : Main 10@L5@High
HDR format : Dolby Vision, Version 1.0, dvhe.05.06, BL+RPU
Codec ID : dvhe
Codec ID/Info : High Efficiency Video Coding with Dolby Vision
Duration : 1 h 49 min
Bit rate : 24.4 Mb/s
Width : 3 840 pixels
Height : 1 608 pixels
Display aspect ratio : 2.40:1
Frame rate mode : Constant
Frame rate : 23.976 (24000/1001) FPS
Color space : YUV
Chroma subsampling : 4:2:0
Bit depth : 10 bits
Bits/(Pixel*Frame) : 0.165
Stream size : 18.6 GiB (97%)
Default : Yes
Alternate group : 1
Encoded date : UTC 2021-06-29 05:38:43
Tagged date : UTC 2021-06-29 05:42:18
Codec configuration box : hvcC+dvcC

Audio
ID : 2
Format : E-AC-3 JOC
Format/Info : Enhanced AC-3 with Joint Object Coding
Commercial name : Dolby Digital Plus with Dolby Atmos
Codec ID : ec-3
Duration : 1 h 49 min
Bit rate mode : Constant
Bit rate : 768 kb/s
Maximum bit rate : 811 kb/s
Channel(s) : 6 channels
Channel layout : L R C LFE Ls Rs
Sampling rate : 48.0 kHz
Frame rate : 31.250 FPS (1536 SPF)
Compression mode : Lossy
Stream size : 601 MiB (3%)
Title : English
Language : English
Service kind : Complete Main
Encoded date : UTC 2021-06-29 05:38:15
Tagged date : UTC 2021-06-29 05:42:18
Complexity index : Not present / 16
Number of dynamic objects : 15
Bed channel count : 1 channel
Bed channel configuration : LFE

Text #1
ID : 3
Format : Timed Text
Codec ID : tx3g
Duration : 1 h 47 min
Bit rate mode : Variable
Bit rate : 115 b/s
Stream size : 90.7 KiB (0%)
Title : English
Language : English
Forced : No
Encoded date : UTC 2021-06-29 05:42:04
Tagged date : UTC 2021-06-29 05:42:18

Text #2
ID : 4
Format : Timed Text
Codec ID : tx3g
Duration : 1 h 49 min
Bit rate mode : Variable
Bit rate : 163 b/s
Stream size : 131 KiB (0%)
Title : العربية
Language : Arabic
Forced : No
Encoded date : UTC 2021-06-29 05:42:04
Tagged date : UTC 2021-06-29 05:42:18

Text #3
ID : 5
Format : Timed Text
Codec ID : tx3g
Duration : 1 h 49 min
Bit rate mode : Variable
Bit rate : 157 b/s
Stream size : 125 KiB (0%)
Title : български
Language : Bulgarian
Forced : No
Encoded date : UTC 2021-06-29 05:42:05
Tagged date : UTC 2021-06-29 05:42:18

Text #4
ID : 6
Format : Timed Text
Codec ID : tx3g
Duration : 1 h 49 min
Bit rate mode : Variable
Bit rate : 101 b/s
Stream size : 80.8 KiB (0%)
Title : 中文(简体)
Language : cmn
Forced : No
Encoded date : UTC 2021-06-29 05:42:05
Tagged date : UTC 2021-06-29 05:42:18

Text #5
ID : 7
Format : Timed Text
Codec ID : tx3g
Duration : 1 h 49 min
Bit rate mode : Variable
Bit rate : 98 b/s
Stream size : 78.8 KiB (0%)
Title : 中文(繁體)
Language : cmn
Forced : No
Encoded date : UTC 2021-06-29 05:42:06
Tagged date : UTC 2021-06-29 05:42:18

Text #6
ID : 8
Format : Timed Text
Codec ID : tx3g
Duration : 1 h 49 min
Bit rate mode : Variable
Bit rate : 104 b/s
Stream size : 83.0 KiB (0%)
Title : Čeština
Language : Czech
Forced : No
Encoded date : UTC 2021-06-29 05:42:07
Tagged date : UTC 2021-06-29 05:42:18

Text #7
ID : 9
Format : Timed Text
Codec ID : tx3g
Duration : 1 h 49 min
Bit rate mode : Variable
Bit rate : 92 b/s
Stream size : 73.7 KiB (0%)
Title : dansk
Language : Danish
Forced : No
Encoded date : UTC 2021-06-29 05:42:08
Tagged date : UTC 2021-06-29 05:42:18

Text #8
ID : 10
Format : Timed Text
Codec ID : tx3g
Duration : 1 h 49 min
Bit rate mode : Variable
Bit rate : 99 b/s
Stream size : 79.3 KiB (0%)
Title : Deutsch
Language : German
Forced : No
Encoded date : UTC 2021-06-29 05:42:08
Tagged date : UTC 2021-06-29 05:42:18

Text #9
ID : 11
Format : Timed Text
Codec ID : tx3g
Duration : 1 h 49 min
Bit rate mode : Variable
Bit rate : 184 b/s
Stream size : 147 KiB (0%)
Title : Ελληνικά
Language : Greek
Forced : No
Encoded date : UTC 2021-06-29 05:42:08
Tagged date : UTC 2021-06-29 05:42:18

Text #10
ID : 12
Format : Timed Text
Codec ID : tx3g
Duration : 1 h 49 min
Bit rate mode : Variable
Bit rate : 101 b/s
Stream size : 80.4 KiB (0%)
Title : Español (Latinoamérica)
Language : Spanish
Forced : No
Encoded date : UTC 2021-06-29 05:42:09
Tagged date : UTC 2021-06-29 05:42:18

Text #11
ID : 13
Format : Timed Text
Codec ID : tx3g
Duration : 1 h 49 min
Bit rate mode : Variable
Bit rate : 107 b/s
Stream size : 86.0 KiB (0%)
Title : Español (España)
Language : Spanish
Forced : No
Encoded date : UTC 2021-06-29 05:42:09
Tagged date : UTC 2021-06-29 05:42:18

Text #12
ID : 14
Format : Timed Text
Codec ID : tx3g
Duration : 1 h 49 min
Bit rate mode : Variable
Bit rate : 103 b/s
Stream size : 82.4 KiB (0%)
Title : eesti
Language : Estonian
Forced : No
Encoded date : UTC 2021-06-29 05:42:09
Tagged date : UTC 2021-06-29 05:42:18

Text #13
ID : 15
Format : Timed Text
Codec ID : tx3g
Duration : 1 h 49 min
Bit rate mode : Variable
Bit rate : 91 b/s
Stream size : 72.9 KiB (0%)
Title : Suomi
Language : Finnish
Forced : No
Encoded date : UTC 2021-06-29 05:42:09
Tagged date : UTC 2021-06-29 05:42:18

Text #14
ID : 16
Format : Timed Text
Codec ID : tx3g
Duration : 1 h 49 min
Bit rate mode : Variable
Bit rate : 103 b/s
Stream size : 82.4 KiB (0%)
Title : Français (Canada)
Language : French
Forced : No
Encoded date : UTC 2021-06-29 05:42:10
Tagged date : UTC 2021-06-29 05:42:18

Text #15
ID : 17
Format : Timed Text
Codec ID : tx3g
Duration : 1 h 49 min
Bit rate mode : Variable
Bit rate : 103 b/s
Stream size : 82.4 KiB (0%)
Title : Français (France)
Language : French
Forced : No
Encoded date : UTC 2021-06-29 05:42:10
Tagged date : UTC 2021-06-29 05:42:18

Text #16
ID : 18
Format : Timed Text
Codec ID : tx3g
Duration : 1 h 49 min
Bit rate mode : Variable
Bit rate : 147 b/s
Stream size : 118 KiB (0%)
Title : עברית
Language : Hebrew
Forced : No
Encoded date : UTC 2021-06-29 05:42:10
Tagged date : UTC 2021-06-29 05:42:18

Text #17
ID : 19
Format : Timed Text
Codec ID : tx3g
Duration : 1 h 49 min
Bit rate mode : Variable
Bit rate : 271 b/s
Stream size : 217 KiB (0%)
Title : हिन्दी
Language : Hindi
Forced : No
Encoded date : UTC 2021-06-29 05:42:11
Tagged date : UTC 2021-06-29 05:42:18

Text #18
ID : 20
Format : Timed Text
Codec ID : tx3g
Duration : 1 h 49 min
Bit rate mode : Variable
Bit rate : 105 b/s
Stream size : 83.7 KiB (0%)
Title : magyar
Language : Hungarian
Forced : No
Encoded date : UTC 2021-06-29 05:42:11
Tagged date : UTC 2021-06-29 05:42:18

Text #19
ID : 21
Format : Timed Text
Codec ID : tx3g
Duration : 1 h 49 min
Bit rate mode : Variable
Bit rate : 103 b/s
Stream size : 82.8 KiB (0%)
Title : Bahasa Indonesia
Language : Indonesian
Forced : No
Encoded date : UTC 2021-06-29 05:42:11
Tagged date : UTC 2021-06-29 05:42:18

Text #20
ID : 22
Format : Timed Text
Codec ID : tx3g
Duration : 1 h 49 min
Bit rate mode : Variable
Bit rate : 91 b/s
Stream size : 72.8 KiB (0%)
Title : Italiano
Language : Italian
Forced : No
Encoded date : UTC 2021-06-29 05:42:12
Tagged date : UTC 2021-06-29 05:42:18

Text #21
ID : 23
Format : Timed Text
Codec ID : tx3g
Duration : 1 h 49 min
Bit rate mode : Variable
Bit rate : 86 b/s
Stream size : 68.6 KiB (0%)
Title : 日本語
Language : Japanese
Forced : No
Encoded date : UTC 2021-06-29 05:42:12
Tagged date : UTC 2021-06-29 05:42:18

Text #22
ID : 24
Format : Timed Text
Codec ID : tx3g
Duration : 1 h 49 min
Bit rate mode : Variable
Bit rate : 115 b/s
Stream size : 91.8 KiB (0%)
Title : 한국어
Language : Korean
Forced : No
Encoded date : UTC 2021-06-29 05:42:12
Tagged date : UTC 2021-06-29 05:42:18

Text #23
ID : 25
Format : Timed Text
Codec ID : tx3g
Duration : 1 h 49 min
Bit rate mode : Variable
Bit rate : 117 b/s
Stream size : 93.5 KiB (0%)
Title : lietuvių
Language : Lithuanian
Forced : No
Encoded date : UTC 2021-06-29 05:42:12
Tagged date : UTC 2021-06-29 05:42:18

Text #24
ID : 26
Format : Timed Text
Codec ID : tx3g
Duration : 1 h 49 min
Bit rate mode : Variable
Bit rate : 115 b/s
Stream size : 92.2 KiB (0%)
Title : latviešu
Language : Latvian
Forced : No
Encoded date : UTC 2021-06-29 05:42:13
Tagged date : UTC 2021-06-29 05:42:18

Text #25
ID : 27
Format : Timed Text
Codec ID : tx3g
Duration : 1 h 49 min
Bit rate mode : Variable
Bit rate : 119 b/s
Stream size : 95.0 KiB (0%)
Title : Bahasa Melayu
Language : Malay
Forced : No
Encoded date : UTC 2021-06-29 05:42:13
Tagged date : UTC 2021-06-29 05:42:18

Text #26
ID : 28
Format : Timed Text
Codec ID : tx3g
Duration : 1 h 49 min
Bit rate mode : Variable
Bit rate : 99 b/s
Stream size : 79.0 KiB (0%)
Title : Nederlands
Language : Dutch
Forced : No
Encoded date : UTC 2021-06-29 05:42:13
Tagged date : UTC 2021-06-29 05:42:18

Text #27
ID : 29
Format : Timed Text
Codec ID : tx3g
Duration : 1 h 49 min
Bit rate mode : Variable
Bit rate : 107 b/s
Stream size : 85.8 KiB (0%)
Title : norsk
Language : Norwegian
Forced : No
Encoded date : UTC 2021-06-29 05:42:13
Tagged date : UTC 2021-06-29 05:42:18

Text #28
ID : 30
Format : Timed Text
Codec ID : tx3g
Duration : 1 h 49 min
Bit rate mode : Variable
Bit rate : 102 b/s
Stream size : 81.9 KiB (0%)
Title : polski
Language : Polish
Forced : No
Encoded date : UTC 2021-06-29 05:42:14
Tagged date : UTC 2021-06-29 05:42:18

Text #29
ID : 31
Format : Timed Text
Codec ID : tx3g
Duration : 1 h 49 min
Bit rate mode : Variable
Bit rate : 101 b/s
Stream size : 81.0 KiB (0%)
Title : Português (Brasil)
Language : Portuguese
Forced : No
Encoded date : UTC 2021-06-29 05:42:14
Tagged date : UTC 2021-06-29 05:42:18

Text #30
ID : 32
Format : Timed Text
Codec ID : tx3g
Duration : 1 h 49 min
Bit rate mode : Variable
Bit rate : 106 b/s
Stream size : 84.6 KiB (0%)
Title : Português
Language : Portuguese
Forced : No
Encoded date : UTC 2021-06-29 05:42:14
Tagged date : UTC 2021-06-29 05:42:18

Text #31
ID : 33
Format : Timed Text
Codec ID : tx3g
Duration : 1 h 49 min
Bit rate mode : Variable
Bit rate : 166 b/s
Stream size : 133 KiB (0%)
Title : Русский
Language : Russian
Forced : No
Encoded date : UTC 2021-06-29 05:42:15
Tagged date : UTC 2021-06-29 05:42:18

Text #32
ID : 34
Format : Timed Text
Codec ID : tx3g
Duration : 1 h 49 min
Bit rate mode : Variable
Bit rate : 99 b/s
Stream size : 79.5 KiB (0%)
Title : Slovenčina
Language : Slovak
Forced : No
Encoded date : UTC 2021-06-29 05:42:15
Tagged date : UTC 2021-06-29 05:42:18

Text #33
ID : 35
Format : Timed Text
Codec ID : tx3g
Duration : 1 h 49 min
Bit rate mode : Variable
Bit rate : 90 b/s
Stream size : 71.8 KiB (0%)
Title : slovenščina
Language : Slovenian
Forced : No
Encoded date : UTC 2021-06-29 05:42:15
Tagged date : UTC 2021-06-29 05:42:18

Text #34
ID : 36
Format : Timed Text
Codec ID : tx3g
Duration : 1 h 49 min
Bit rate mode : Variable
Bit rate : 106 b/s
Stream size : 84.4 KiB (0%)
Title : Svenska
Language : Swedish
Forced : No
Encoded date : UTC 2021-06-29 05:42:16
Tagged date : UTC 2021-06-29 05:42:18

Text #35
ID : 37
Format : Timed Text
Codec ID : tx3g
Duration : 1 h 49 min
Bit rate mode : Variable
Bit rate : 332 b/s
Stream size : 266 KiB (0%)
Title : தமிழ்
Language : Tamil
Forced : No
Encoded date : UTC 2021-06-29 05:42:16
Tagged date : UTC 2021-06-29 05:42:18

Text #36
ID : 38
Format : Timed Text
Codec ID : tx3g
Duration : 1 h 49 min
Bit rate mode : Variable
Bit rate : 283 b/s
Stream size : 226 KiB (0%)
Title : తెలుగు
Language : Telugu
Forced : No
Encoded date : UTC 2021-06-29 05:42:16
Tagged date : UTC 2021-06-29 05:42:18

Text #37
ID : 39
Format : Timed Text
Codec ID : tx3g
Duration : 1 h 49 min
Bit rate mode : Variable
Bit rate : 269 b/s
Stream size : 215 KiB (0%)
Title : ไทย
Language : Thai
Forced : No
Encoded date : UTC 2021-06-29 05:42:17
Tagged date : UTC 2021-06-29 05:42:18

Text #38
ID : 40
Format : Timed Text
Codec ID : tx3g
Duration : 1 h 49 min
Bit rate mode : Variable
Bit rate : 102 b/s
Stream size : 81.7 KiB (0%)
Title : Türkçe
Language : Turkish
Forced : No
Encoded date : UTC 2021-06-29 05:42:17
Tagged date : UTC 2021-06-29 05:42:18

Text #39
ID : 41
Format : Timed Text
Codec ID : tx3g
Duration : 1 h 49 min
Bit rate mode : Variable
Bit rate : 169 b/s
Stream size : 135 KiB (0%)
Title : українська
Language : Ukrainian
Forced : No
Encoded date : UTC 2021-06-29 05:42:17
Tagged date : UTC 2021-06-29 05:42:18

Text #40
ID : 42
Format : Timed Text
Codec ID : tx3g
Duration : 1 h 49 min
Bit rate mode : Variable
Bit rate : 150 b/s
Stream size : 120 KiB (0%)
Title : Tiếng Việt
Language : Vietnamese
Forced : No
Encoded date : UTC 2021-06-29 05:42:17
Tagged date : UTC 2021-06-29 05:42:18

Text #41
ID : 43
Format : Timed Text
Codec ID : tx3g
Duration : 1 h 49 min
Bit rate mode : Variable
Bit rate : 103 b/s
Stream size : 82.2 KiB (0%)
Title : 廣東話
Language : yue
Forced : No
Encoded date : UTC 2021-06-29 05:42:18
Tagged date : UTC 2021-06-29 05:42:18
资源速度为零或资源敏感被和谐时,推荐使用qBittorrent等下载软件,有条件的推荐115更好的下载软件!

下载地址:


游客,如果您要查看本帖隐藏内容请回复

游客,如果您要查看本帖隐藏内容请回复










上一篇:[纪录片] 加勒比珍惜的野生动物 50fps (2018) 4K高清版本下载
下一篇:阿坎达 / Akhanda (2021) 4K高清版本下载
回复

使用道具 举报

44

主题

1533

帖子

4417

积分

4K家园VIP

Rank: 9Rank: 9Rank: 9

积分
4417
发表于 2022-6-20 20:48:45 来自手机 | 显示全部楼层
感谢分享
回复 支持 反对

使用道具 举报

4

主题

1733

帖子

4819

积分

4K家园VIP

Rank: 9Rank: 9Rank: 9

积分
4819
发表于 2022-6-21 00:13:40 | 显示全部楼层
支持楼主,用户楼主,楼主英明呀!!!
回复 支持 反对

使用道具 举报

2

主题

1346

帖子

3890

积分

4K家园VIP

Rank: 9Rank: 9Rank: 9

积分
3890
发表于 2022-6-21 01:11:09 来自手机 | 显示全部楼层
佩服佩服!
回复 支持 反对

使用道具 举报

54

主题

1569

帖子

4481

积分

4K家园VIP

Rank: 9Rank: 9Rank: 9

积分
4481
发表于 2022-6-21 02:05:48 来自手机 | 显示全部楼层
楼猪V5啊
回复 支持 反对

使用道具 举报

59

主题

1571

帖子

4509

积分

4K家园VIP

Rank: 9Rank: 9Rank: 9

积分
4509
发表于 2022-6-21 02:09:33 来自手机 | 显示全部楼层
正需要
回复 支持 反对

使用道具 举报

0

主题

81

帖子

183

积分

新手上路

Rank: 1

积分
183
发表于 2022-6-21 13:36:38 | 显示全部楼层
这个可以看一下了
回复 支持 反对

使用道具 举报

您需要登录后才可以回帖 登录 | 立即注册

本版积分规则

精彩图文
Archiver|手机版|TAG|Sitemap|新帖|专题|联系我们:邮箱: 4kjia.com@gmail.com   

4k家园   ©2019