[4K电影] 阿坎达 / Akhanda (2021) 4K高清版本下载

[复制链接]

1868

主题

2007

帖子

1万

积分

超级版主

Rank: 8Rank: 8

积分
15027
 楼主| 发表于 6 天前 | 显示全部楼层 |阅读模式
QQ图片20220620210535.png

◎译  名 阿坎达
◎片  名 Akhanda
◎年  代 2021
◎国  家 印度
◎类  别 剧情 / 动作
◎语  言 泰卢固语
◎上映日期   2021-12-02(印度)
◎IMDb评分  7.3/10 from 8,7 users
◎IMDb链接  https://www.imdb.com/title/tt11773378/
◎豆瓣评分 0/10 from 0 users
◎豆瓣链接 https://movie.douban.com/subject/35748491/
◎片  长 147分钟
◎导  演 Boyapati Srinu Boyapati Srinu
◎编  剧 Boyapati Srinu Boyapati Srinu / M. Rathnam M. Rathnam
◎主  演 巴拉克利须那 Balakrishna
       Pragya Jaiswal /Pragya Jaiswal
       Jagapathi Babu / Jagapathi Babu
       梅卡·斯里坎特 / Meka Srikanth
       沙姆纳·卡西姆 / Shamna Kasim



◎简  介


        穆先生是派系林立的阿南塔地区的著名人民公仆。当瓦拉达旗下的矿场给穷人带来巨大的问题时,他所在的地区就出现了问题,穆先生与瓦拉达对抗,但不幸被捕。当歹徒对穆先生的家庭造成更大的破坏时,阿坎达登场,拯救了所有人,因为他是湿婆神的化身之一

Video
ID : 1
Format : HEVC
Format/Info : High Efficiency Video Coding
Format profile : [email protected]@High
Codec ID : V_MPEGH/ISO/HEVC
Duration : 2 h 47 min
Bit rate : 19.8 Mb/s
Width : 3 840 pixels
Height : 2 160 pixels
Display aspect ratio : 16:9
Frame rate mode : Constant
Frame rate : 24.000 FPS
Color space : YUV
Chroma subsampling : 4:2:0
Bit depth : 8 bits
Bits/(Pixel*Frame) : 0.100
Stream size : 23.2 GiB (96%)
Writing library : x265 3.5:[Linux][GCC 9.3.0][64 bit] 8bit+10bit+12bit
Encoding settings : cpuid=1111039 / frame-threads=1 / numa-pools=16 / wpp / no-pmode / no-pme / no-psnr / no-ssim / log-level=2 / input-csp=1 / input-res=3840x2160 / interlace=0 / total-frames=0 / level-idc=50 / high-tier=1 / uhd-bd=0 / ref=2 / no-allow-non-conformance / repeat-headers / annexb / no-aud / no-hrd / info / hash=0 / no-temporal-layers / no-open-gop / min-keyint=48 / keyint=48 / gop-lookahead=0 / bframes=4 / b-adapt=1 / b-pyramid / bframe-bias=0 / rc-lookahead=48 / lookahead-slices=8 / scenecut=0 / hist-scenecut=0 / radl=0 / no-splice / no-intra-refresh / ctu=32 / min-cu-size=8 / no-rect / no-amp / max-tu-size=16 / tu-inter-depth=2 / tu-intra-depth=2 / limit-tu=0 / rdoq-level=1 / dynamic-rd=0.00 / no-ssim-rd / signhide / no-tskip / nr-intra=0 / nr-inter=0 / no-constrained-intra / no-strong-intra-smoothing / max-merge=3 / limit-refs=1 / no-limit-modes / me=1 / subme=2 / merange=44 / temporal-mvp / no-frame-dup / no-hme / weightp / no-weightb / no-analyze-src-pics / deblock=0:0 / no-sao / no-sao-non-deblock / rd=4 / selective-sao=0 / early-skip / rskip / no-fast-intra / no-tskip-fast / no-cu-lossless / b-intra / no-splitrd-skip / rdpenalty=1 / psy-rd=1.60 / psy-rdoq=5.00 / no-rd-refine / no-lossless / cbqpoffs=0 / crqpoffs=0 / rc=abr / bitrate=20000 / qcomp=0.75 / qpstep=4 / stats-write=0 / stats-read=0 / vbv-maxrate=24000 / vbv-bufsize=40000 / vbv-init=0.9 / ipratio=1.40 / pbratio=1.30 / aq-mode=3 / aq-strength=1.00 / no-cutree / zone-count=0 / no-strict-cbr / qg-size=32 / no-rc-grain / qpmax=69 / qpmin=0 / no-const-vbv / sar=1 / overscan=0 / videoformat=5 / range=0 / colorprim=1 / transfer=1 / colormatrix=1 / chromaloc=0 / display-window=0 / cll=0,0 / min-luma=0 / max-luma=255 / log2-max-poc-lsb=8 / vui-timing-info / vui-hrd-info / slices=1 / no-opt-qp-pps / no-opt-ref-list-length-pps / no-multi-pass-opt-rps / scenecut-bias=0.00 / hist-threshold=0.01 / no-opt-cu-delta-qp / no-aq-motion / no-hdr10 / no-hdr10-opt / no-dhdr10-opt / no-idr-recovery-sei / analysis-reuse-level=0 / analysis-save-reuse-level=0 / analysis-load-reuse-level=0 / scale-factor=0 / refine-intra=0 / refine-inter=0 / refine-mv=1 / refine-ctu-distortion=0 / no-limit-sao / ctu-info=0 / no-lowpass-dct / refine-analysis-type=0 / copy-pic=1 / max-ausize-factor=1.0 / no-dynamic-refine / no-single-sei / no-hevc-aq / no-svt / no-field / qp-adaptation-range=1.00 / no-scenecut-aware-qpconformance-window-offsets / right=0 / bottom=0
Language : Telugu
Default : Yes
Forced : No
Color range : Limited
Color primaries : BT.709
Transfer characteristics : BT.709
Matrix coefficients : BT.709

Audio
ID : 2
Format : E-AC-3 JOC
Format/Info : Enhanced AC-3 with Joint Object Coding
Commercial name : Dolby Digital Plus with Dolby Atmos
Codec ID : A_EAC3
Duration : 2 h 47 min
Bit rate mode : Constant
Bit rate : 768 kb/s
Channel(s) : 6 channels
Channel layout : L R C LFE Ls Rs
Sampling rate : 48.0 kHz
Frame rate : 31.250 FPS (1536 SPF)
Compression mode : Lossy
Stream size : 920 MiB (4%)
Language : Telugu
Service kind : Complete Main
Default : Yes
Forced : No
Complexity index : 16
Number of dynamic objects : 15
Bed channel count : 1 channel
Bed channel configuration : LFE

Text #1
ID : 3
Format : UTF-8
Codec ID : S_TEXT/UTF8
Codec ID/Info : UTF-8 Plain Text
Duration : 2 h 42 min
Bit rate : 118 b/s
Count of elements : 1451
Stream size : 141 KiB (0%)
Language : Bengali
Default : No
Forced : No

Text #2
ID : 4
Format : UTF-8
Codec ID : S_TEXT/UTF8
Codec ID/Info : UTF-8 Plain Text
Duration : 2 h 42 min
Bit rate : 50 b/s
Count of elements : 1326
Stream size : 59.7 KiB (0%)
Language : English
Default : No
Forced : No

Text #3
ID : 5
Format : UTF-8
Codec ID : S_TEXT/UTF8
Codec ID/Info : UTF-8 Plain Text
Duration : 2 h 43 min
Bit rate : 94 b/s
Count of elements : 1434
Stream size : 113 KiB (0%)
Language : Hindi
Default : No
Forced : No

Text #4
ID : 6
Format : UTF-8
Codec ID : S_TEXT/UTF8
Codec ID/Info : UTF-8 Plain Text
Duration : 2 h 43 min
Bit rate : 107 b/s
Count of elements : 1435
Stream size : 128 KiB (0%)
Language : Kannada
Default : No
Forced : No

Text #5
ID : 7
Format : UTF-8
Codec ID : S_TEXT/UTF8
Codec ID/Info : UTF-8 Plain Text
Duration : 2 h 43 min
Bit rate : 118 b/s
Count of elements : 1505
Stream size : 142 KiB (0%)
Language : Malayalam
Default : No
Forced : No

Text #6
ID : 8
Format : UTF-8
Codec ID : S_TEXT/UTF8
Codec ID/Info : UTF-8 Plain Text
Duration : 2 h 42 min
Bit rate : 114 b/s
Count of elements : 1464
Stream size : 136 KiB (0%)
Language : Marathi
Default : No
Forced : No

Text #7
ID : 9
Format : UTF-8
Codec ID : S_TEXT/UTF8
Codec ID/Info : UTF-8 Plain Text
Duration : 2 h 45 min
Bit rate : 116 b/s
Count of elements : 1498
Stream size : 141 KiB (0%)
Language : Tamil
Default : No
Forced : No
资源速度为零或资源敏感被和谐时,推荐使用qBittorrent等下载软件,有条件的推荐115更好的下载软件!

下载地址:


****此区域为收费内容****    需支付 9 金币后可查看立即购买





上一篇:少年邦(简繁粤中字)Boys State (2022) 4K高清版本下载
下一篇:未来罪行 / Crimes of the Future (2022) 4K高清版本下载
回复

使用道具 举报

1868

主题

2007

帖子

1万

积分

超级版主

Rank: 8Rank: 8

积分
15027
 楼主| 发表于 6 天前 | 显示全部楼层
本帖最后由 最爱4K哟 于 2022-6-21 09:17 编辑

212029ntd9wim2qmxfx099.png 212029qbrv87488l7wzvgl.png 212029sfq85z48y5d4io84.png 212029ttypjzj52yujpmy8.png
回复 支持 反对

使用道具 举报

1

主题

22

帖子

1612

积分

4K家园VIP

Rank: 9Rank: 9Rank: 9

积分
1612
发表于 6 天前 | 显示全部楼层
谢谢分享 支持下
回复 支持 反对

使用道具 举报

3

主题

1303

帖子

3931

积分

4K家园VIP

Rank: 9Rank: 9Rank: 9

积分
3931
发表于 6 天前 来自手机 | 显示全部楼层
我也来顶一下..
回复 支持 反对

使用道具 举报

0

主题

80

帖子

177

积分

新手上路

Rank: 1

积分
177
发表于 6 天前 | 显示全部楼层
这个可以看一下了
回复 支持 反对

使用道具 举报

46

主题

1503

帖子

4353

积分

4K家园VIP

Rank: 9Rank: 9Rank: 9

积分
4353
发表于 6 天前 来自手机 | 显示全部楼层
没看懂
回复 支持 反对

使用道具 举报

38

主题

1541

帖子

4403

积分

4K家园VIP

Rank: 9Rank: 9Rank: 9

积分
4403
发表于 5 天前 | 显示全部楼层
嘘,低调。
回复 支持 反对

使用道具 举报

49

主题

1475

帖子

4227

积分

4K家园VIP

Rank: 9Rank: 9Rank: 9

积分
4227
发表于 5 天前 | 显示全部楼层
没人回帖。。。我来个吧
回复 支持 反对

使用道具 举报

0

主题

4

帖子

472

积分

4K家园VIP

Rank: 9Rank: 9Rank: 9

积分
472
发表于 5 天前 | 显示全部楼层
带中文字幕么?
回复 支持 反对

使用道具 举报

53

主题

1533

帖子

4439

积分

4K家园VIP

Rank: 9Rank: 9Rank: 9

积分
4439
发表于 4 天前 | 显示全部楼层
向楼主学习
回复 支持 反对

使用道具 举报

您需要登录后才可以回帖 登录 | 立即注册

本版积分规则

精彩图文
Archiver|手机版|TAG|Sitemap|新帖|专题|联系我们:邮箱: 4kjia.com@gmail.com   

4k家园   ©2019