[4K电影] 未来罪行 / Crimes of the Future (2022) 4K高清版本下载

[复制链接]

2299

主题

2448

帖子

1万

积分

超级版主

Rank: 8Rank: 8

积分
17752
 楼主| 发表于 2022-6-21 14:06:23 | 显示全部楼层 |阅读模式
QQ图片20220621135206_副本.png

◎译  名 未来罪行 / 犯罪档案
◎片  名 Crimes of the Future
◎年  代 2022
◎产  地 加拿大 / 法国 / 希腊 / 英国
◎类  别 剧情 / 科幻 / 恐怖
◎语  言 英语
◎上映日期 2022-05-23(戛纳电影节) / 2022-05-25(法国) / 2022-06-02(美国)
◎IMDb评分  6.6/10 from 4144 users
◎IMDb链接  https://www.imdb.com/title/tt14549466/
◎豆瓣评分 6.6/10 from 629 users
◎豆瓣链接 https://movie.douban.com/subject/35448536/
◎片  长 107 分钟
◎导  演 大卫·柯南伯格 David Cronenberg
◎编  剧 大卫·柯南伯格 David Cronenberg
◎主  演 蕾雅·赛杜 Léa Seydoux
                  克里斯汀·斯图尔特 Kristen Stewart
                  维果·莫腾森 Viggo Mortensen
                  斯科特·斯比德曼 Scott Speedman
                  塔娜亚·比蒂 Tanaya Beatty
                  莉希·科诺夫斯基 Lihi Kornowski
                  丹尼斯·卡佩扎 Denise Capezza
                  唐·麦凯勒 Don McKellar
                  娜迪亚·利茨 Nadia Litz
                  约戈斯·皮尔帕索珀罗斯 Yorgos Pirpassopoulos
                  韦尔凯特·邦盖 Welket Bungué
                  埃菲·坎查 Ephie Kantza
                  杰森·比特 Jason Bitter
                  索佐斯·索蒂里斯 Sozos Sotiris
                  皮内洛皮·提斯丽卡 Pinelopi Tsilika



◎简  介


       大卫·柯南伯格将自编自导科幻惊悚片《未来罪行》(Crimes of the Future),维果·莫滕森、蕾雅·赛杜、克里斯汀·斯图尔特主演,NEON和Serendipity Point Films出品,夏季希腊开拍。
  该片深入探索不远的未来,人类正在学习适应其合成环境,这种进化使人类超越自然状态,开始变形,改变他们的生物构成。有些人欣然接受超人文主义的无限潜力,而另一些人则试图控制它。不管怎样,“加速进化综合症”正在迅速蔓延。
  索尔·滕泽是一位深受喜爱的行为艺术家,他接受了加速进化综合症,身体里长出了意想不到的新器官。滕泽和他的搭档卡普利斯一起将摘除这些器官的过程变成了一场奇观——在剧院里实时操作,让其忠实的拥护者们惊叹。但是在政府和奇怪的亚文化共同关注的情况下,滕泽被迫考虑什么将是他最令人震惊的表演。

Video
ID : 1
Format : HEVC
Format/Info : High Efficiency Video Coding
Format profile : Main 10@L5@High
Codec ID : V_MPEGH/ISO/HEVC
Duration : 1 h 47 min
Bit rate : 20.2 Mb/s
Width : 3 836 pixels
Height : 2 072 pixels
Display aspect ratio : 1.85:1
Frame rate mode : Constant
Frame rate : 23.976 FPS
Color space : YUV
Chroma subsampling : 4:2:0
Bit depth : 10 bits
Bits/(Pixel*Frame) : 0.106
Stream size : 15.2 GiB (98%)
Language : English
Default : Yes
Forced : No
Color range : Limited
Color primaries : BT.709
Transfer characteristics : BT.709
Matrix coefficients : BT.709

Audio
ID : 2
Format : AC-3
Format/Info : Audio Coding 3
Commercial name : Dolby Digital
Codec ID : A_AC3
Duration : 1 h 47 min
Bit rate mode : Constant
Bit rate : 384 kb/s
Channel(s) : 6 channels
Channel layout : L R C LFE Ls Rs
Sampling rate : 48.0 kHz
Frame rate : 31.250 FPS (1536 SPF)
Compression mode : Lossy
Stream size : 295 MiB (2%)
Language : English
Service kind : Complete Main
Default : Yes
Forced : No

Text #1
ID : 3
Format : UTF-8
Codec ID : S_TEXT/UTF8
Codec ID/Info : UTF-8 Plain Text
Duration : 1 h 41 min
Bit rate : 57 b/s
Count of elements : 1824
Stream size : 42.5 KiB (0%)
Title : SDH
Language : English
Default : No
Forced : No

Text #2
ID : 4
Format : UTF-8
Codec ID : S_TEXT/UTF8
Codec ID/Info : UTF-8 Plain Text
Duration : 1 h 37 min
Bit rate : 50 b/s
Count of elements : 1420
Stream size : 35.6 KiB (0%)
Language : English
Default : No
Forced : No

Menu
00:00:00.000 : Chapter 01
00:10:11.736 : Chapter 02
00:20:34.734 : Chapter 03
00:34:50.840 : Chapter 04
00:42:13.283 : Chapter 05
00:55:37.212 : Chapter 06
01:05:36.436 : Chapter 07
01:15:11.970 : Chapter 08
01:23:17.789 : Chapter 09
01:32:33.511 : Chapter 10
01:41:09.569 : Chapter 11


资源速度为零或资源敏感被和谐时,推荐使用qBittorrent等下载软件,有条件的推荐115更好的下载软件!

下载地址:


游客,如果您要查看本帖隐藏内容请回复

游客,如果您要查看本帖隐藏内容请回复

游客,如果您要查看本帖隐藏内容请回复

游客,如果您要查看本帖隐藏内容请回复





上一篇:阿坎达 / Akhanda (2021) 4K高清版本下载
下一篇:监视者 / Watcher (2022) 4K高清版本下载
回复

使用道具 举报

2

主题

1689

帖子

4655

积分

4K家园VIP

Rank: 9Rank: 9Rank: 9

积分
4655
发表于 2022-6-21 14:06:27 来自手机 | 显示全部楼层
站位支持
回复 支持 反对

使用道具 举报

48

主题

1605

帖子

4631

积分

4K家园VIP

Rank: 9Rank: 9Rank: 9

积分
4631
发表于 2022-6-21 15:27:33 来自手机 | 显示全部楼层
LZ敢整点更有创意的不?兄弟们等着围观捏~
回复 支持 反对

使用道具 举报

0

主题

468

帖子

2853

积分

注册会员

Rank: 2

积分
2853
发表于 2022-6-21 15:49:51 | 显示全部楼层
谢谢楼主分享
回复 支持 反对

使用道具 举报

0

主题

1

帖子

6

积分

新手上路

Rank: 1

积分
6
发表于 2022-6-21 16:07:45 | 显示全部楼层
谢谢分享啊
回复 支持 反对

使用道具 举报

1

主题

1522

帖子

4416

积分

4K家园VIP

Rank: 9Rank: 9Rank: 9

积分
4416
发表于 2022-6-21 17:57:13 来自手机 | 显示全部楼层
学习下
回复 支持 反对

使用道具 举报

1

主题

1428

帖子

4100

积分

4K家园VIP

Rank: 9Rank: 9Rank: 9

积分
4100
发表于 2022-6-21 23:53:23 | 显示全部楼层
正好需要啊
回复 支持 反对

使用道具 举报

0

主题

23

帖子

177

积分

新手上路

Rank: 1

积分
177
发表于 2022-6-22 01:17:06 | 显示全部楼层
123
回复

使用道具 举报

48

主题

1554

帖子

4486

积分

4K家园VIP

Rank: 9Rank: 9Rank: 9

积分
4486
发表于 2022-6-22 12:33:30 | 显示全部楼层
看起来好像不错的样子
回复 支持 反对

使用道具 举报

0

主题

5

帖子

39

积分

新手上路

Rank: 1

积分
39
发表于 2022-6-22 15:11:45 | 显示全部楼层
谢谢分享,感谢
回复 支持 反对

使用道具 举报

您需要登录后才可以回帖 登录 | 立即注册

本版积分规则

精彩图文
Archiver|手机版|TAG|Sitemap|新帖|专题|联系我们:邮箱: 4kjia.com@gmail.com   

4k家园   ©2019