[4K电影] 囊肿 / CYST (2020) 4K高清版本下载

[复制链接]

1868

主题

2007

帖子

1万

积分

超级版主

Rank: 8Rank: 8

积分
15027
 楼主| 发表于 6 天前 | 显示全部楼层 |阅读模式
本帖最后由 最爱4K哟 于 2022-6-21 20:29 编辑

QQ图片20220621201417_副本.png

◎译  名 囊肿
◎片  名 CYST
◎年  代 2022
◎产  地 美国
◎类  别 科幻 / 恐怖
◎语  言 英语
◎上映日期 2020-09-24(奇幻电影节)
◎IMDb评分  4.3/10 from 611 users
◎IMDb链接  https://www.imdb.com/title/tt10611992/
◎豆瓣评分 4.3/10 from 889 users
◎豆瓣链接 https://movie.douban.com/subject/35232185/
◎片  长 69 分钟
◎导  演 泰勒·拉塞尔 Tyler Russell
◎编  剧 泰勒·拉塞尔 Tyler Russell / 安迪·西尔弗曼 Andy Silverman
◎主  演 伊娃·哈伯曼 Eva Habermann
                  格雷戈·赛斯特罗 Greg Sestero
                  杰森·道格拉斯 Jason Douglas
                  吉因·琼斯 Gene Jones
                  乔治·哈迪 George Hardy
                  弗朗西丝卡·桑托罗 Francesca Santoro
                  达伦·尤因 Darren Ewing
                  凯尔·罗伯茨 Kyle Roberts
                  布莱安娜·安德森 Brianna Anderson
                  特里·梅里特·贝内特 Terri Merritt Bennett
                  托伦·戴维斯 Torren Davis

                  Keturah Branch Keturah Branch


◎简  介


        《囊肿》是一部老派的怪兽电影,在这部电影中,一位热心的整形外科医生将不惜一切代价为他最新的囊肿切除机申请专利。当医生的机器不经意间将病人的肿瘤变成了一个囊肿怪物,威胁着病人时,护士帕特里夏(伊娃·哈伯曼饰)的最后一天变成了一场生存之战
Video
ID : 1
Format : HEVC
Format/Info : High Efficiency Video Coding
Format profile : Main 10@L5@High
Codec ID : V_MPEGH/ISO/HEVC
Duration : 1 h 13 min
Bit rate : 12.0 Mb/s
Width : 3 836 pixels
Height : 1 592 pixels
Display aspect ratio : 2.40:1
Frame rate mode : Constant
Frame rate : 23.976 FPS
Color space : YUV
Chroma subsampling : 4:2:0
Bit depth : 10 bits
Bits/(Pixel*Frame) : 0.082
Stream size : 6.18 GiB (74%)
Default : Yes
Forced : No
Color range : Limited
Color primaries : BT.709
Transfer characteristics : BT.709
Matrix coefficients : BT.709

Audio #1
ID : 2
ID in the original source medium : 4353 (0x1101)
Format : DTS XLL
Format/Info : Digital Theater Systems
Commercial name : DTS-HD Master Audio
Codec ID : A_DTS
Duration : 1 h 13 min
Bit rate mode : Variable
Bit rate : 3 857 kb/s
Channel(s) : 6 channels
Channel layout : C L R Ls Rs LFE
Sampling rate : 48.0 kHz
Frame rate : 93.750 FPS (512 SPF)
Bit depth : 24 bits
Compression mode : Lossless
Delay relative to video : 17 s 800 ms
Stream size : 1.98 GiB (24%)
Title : DTS-HD MA 5.1
Language : English
Default : Yes
Forced : No
Original source medium : Blu-ray

Audio #2
ID : 3
Format : AC-3
Format/Info : Audio Coding 3
Commercial name : Dolby Digital
Codec ID : A_AC3
Duration : 1 h 13 min
Bit rate mode : Constant
Bit rate : 384 kb/s
Channel(s) : 6 channels
Channel layout : L R C LFE Ls Rs
Sampling rate : 48.0 kHz
Frame rate : 31.250 FPS (1536 SPF)
Compression mode : Lossy
Stream size : 202 MiB (2%)
Language : English
Service kind : Complete Main
Default : No
Forced : No

Text #1
ID : 4
Format : UTF-8
Codec ID : S_TEXT/UTF8
Codec ID/Info : UTF-8 Plain Text
Duration : 1 h 10 min
Bit rate : 41 b/s
Count of elements : 705
Stream size : 21.4 KiB (0%)
Language : English
Default : Yes
Forced : No

Text #2
ID : 5
ID in the original source medium : 4609 (0x1201)
Format : PGS
Muxing mode : zlib
Codec ID : S_HDMV/PGS
Codec ID/Info : Picture based subtitle format used on BDs/HD-DVDs
Duration : 1 h 10 min
Bit rate : 21.0 kb/s
Count of elements : 1441
Stream size : 10.6 MiB (0%)
Language : English
Default : No
Forced : No
Original source medium : Blu-ray

Text #3
ID : 6
ID in the original source medium : 4608 (0x1200)
Format : PGS
Muxing mode : zlib
Codec ID : S_HDMV/PGS
Codec ID/Info : Picture based subtitle format used on BDs/HD-DVDs
Duration : 1 h 10 min
Bit rate : 20.1 kb/s
Count of elements : 1284
Stream size : 10.2 MiB (0%)
Language : German
Default : No
Forced : No
Original source medium : Blu-ray

Menu
00:00:00.000 : en:Chapter 01
00:08:59.914 : en:Chapter 02
00:17:40.934 : en:Chapter 03
00:26:24.916 : en:Chapter 04
00:35:22.161 : en:Chapter 05
00:45:07.079 : en:Chapter 06
00:53:40.300 : en:Chapter 07
01:03:35.228 : en:Chapter 08
01:08:24.892 : en:Chapter 09

资源速度为零或资源敏感被和谐时,推荐使用qBittorrent等下载软件,有条件的推荐115更好的下载软件!

下载地址:


游客,如果您要查看本帖隐藏内容请回复

游客,如果您要查看本帖隐藏内容请回复






上一篇:监视者 / Watcher (2022) 4K高清版本下载
下一篇:使徒 (简繁中字)/ Apostle (2018) 4K高清版本下载
回复

使用道具 举报

1

主题

1360

帖子

4108

积分

4K家园VIP

Rank: 9Rank: 9Rank: 9

积分
4108
发表于 6 天前 | 显示全部楼层
锄禾日当午,发帖真辛苦。谁知坛中餐,帖帖皆辛苦!
回复 支持 反对

使用道具 举报

1

主题

1371

帖子

3967

积分

4K家园VIP

Rank: 9Rank: 9Rank: 9

积分
3967
发表于 6 天前 来自手机 | 显示全部楼层
向楼主学习
回复 支持 反对

使用道具 举报

47

主题

1477

帖子

4225

积分

4K家园VIP

Rank: 9Rank: 9Rank: 9

积分
4225
发表于 6 天前 来自手机 | 显示全部楼层
前排支持下
回复 支持 反对

使用道具 举报

0

主题

1353

帖子

4069

积分

4K家园VIP

Rank: 9Rank: 9Rank: 9

积分
4069
发表于 6 天前 来自手机 | 显示全部楼层
求沙发
回复 支持 反对

使用道具 举报

40

主题

1498

帖子

4298

积分

4K家园VIP

Rank: 9Rank: 9Rank: 9

积分
4298
发表于 5 天前 | 显示全部楼层
感谢楼主发帖,前排顶起
回复 支持 反对

使用道具 举报

您需要登录后才可以回帖 登录 | 立即注册

本版积分规则

精彩图文
Archiver|手机版|TAG|Sitemap|新帖|专题|联系我们:邮箱: 4kjia.com@gmail.com   

4k家园   ©2019