[4K电影] 使徒 (简繁中字)/ Apostle (2018) 4K高清版本下载

[复制链接]

1868

主题

2007

帖子

1万

积分

超级版主

Rank: 8Rank: 8

积分
15027
 楼主| 发表于 6 天前 | 显示全部楼层 |阅读模式
QQ图片20220621204357_副本.png

◎译  名 使徒
◎片  名 Apostle
◎年  代 2018
◎产  地 美国
◎类  别 悬疑 / 惊悚 / 恐怖
◎语  言 英语
◎上映日期 2018-10-12(美国)
◎IMDb评分 6.3/10 from 51587 users
◎IMDb链接 http://www.imdb.com/title/tt6217306
◎豆瓣评分 6.3/10 from 4136 users
◎豆瓣链接 https://movie.douban.com/subject/26908051/
◎片  长 130分钟
◎导  演 加雷斯·埃文斯 Gareth Evans
◎编  剧 加雷斯·埃文斯 Gareth Evans
◎主  演 丹·史蒂文斯 Dan Stevens
       麦克·辛 Michael Sheen
       露西·宝通 Lucy Boynton
       比尔·米尔纳 Bill Milner
       理查德·艾尔芬 Richard Elfyn
       克里斯汀·弗劳赛斯 Kristine Froseth
       马克·路易斯·琼斯 Mark Lewis Jones
       埃伦·里斯 Elen Rhys
       保罗·希金斯 Paul Higgins
       罗斯·奥亨尼西 Ross O'Hennessey
       斯图尔特·麦克尼尔 Stuart McNeil
       安妮斯·埃尔维 Annes Elwy


◎简  介

  麦克·辛加盟加雷斯·埃文斯自编自导的惊悚片[使徒],同时加盟的演员还包括露西·宝通、比尔·米尔纳、克里斯汀·弗劳赛斯,此前“大表哥”丹·史蒂文斯已确定参演。故事讲述一个男人因妹妹被邪教份子绑架,决定独闯龙潭、实施复仇计划的故事。

Video
ID : 1
Format : HEVC
Format/Info : High Efficiency Video Coding
Format profile : Main 10@L5@Main
Codec ID : V_MPEGH/ISO/HEVC
Duration : 2 h 10 min
Bit rate : 11.7 Mb/s
Width : 3 840 pixels
Height : 2 160 pixels
Display aspect ratio : 16:9
Frame rate mode : Constant
Frame rate : 24.000 FPS
Color space : YUV
Chroma subsampling : 4:2:0
Bit depth : 10 bits
Bits/(Pixel*Frame) : 0.059
Stream size : 10.6 GiB (95%)
Default : Yes
Forced : No
Color range : Limited
Color primaries : BT.709
Transfer characteristics : BT.709
Matrix coefficients : BT.709

Audio
ID : 2
Format : E-AC-3
Format/Info : Enhanced AC-3
Commercial name : Dolby Digital Plus
Codec ID : A_EAC3
Duration : 2 h 10 min
Bit rate mode : Constant
Bit rate : 640 kb/s
Channel(s) : 6 channels
Channel layout : L R C LFE Ls Rs
Sampling rate : 48.0 kHz
Frame rate : 31.250 FPS (1536 SPF)
Compression mode : Lossy
Stream size : 595 MiB (5%)
Language : English
Service kind : Complete Main
Default : Yes
Forced : No

Text #1
ID : 3
Format : UTF-8
Codec ID : S_TEXT/UTF8
Codec ID/Info : UTF-8 Plain Text
Duration : 2 min 58 s
Bit rate : 2 b/s
Count of elements : 2
Stream size : 51.0 Bytes (0%)
Title : Forced
Language : English
Default : Yes
Forced : Yes

Text #2
ID : 4
Format : UTF-8
Codec ID : S_TEXT/UTF8
Codec ID/Info : UTF-8 Plain Text
Duration : 2 h 8 min
Bit rate : 29 b/s
Count of elements : 1147
Stream size : 27.8 KiB (0%)
Title : SDH
Language : English
Default : No
Forced : No

Text #3
ID : 5
Format : UTF-8
Codec ID : S_TEXT/UTF8
Codec ID/Info : UTF-8 Plain Text
Duration : 2 h 9 min
Bit rate : 36 b/s
Count of elements : 830
Stream size : 34.2 KiB (0%)
Language : Arabic
Default : No
Forced : No

Text #4
ID : 6
Format : UTF-8
Codec ID : S_TEXT/UTF8
Codec ID/Info : UTF-8 Plain Text
Duration : 2 h 9 min
Bit rate : 20 b/s
Count of elements : 830
Stream size : 19.8 KiB (0%)
Language : Czech
Default : No
Forced : No

Text #5
ID : 7
Format : UTF-8
Codec ID : S_TEXT/UTF8
Codec ID/Info : UTF-8 Plain Text
Duration : 2 h 9 min
Bit rate : 22 b/s
Count of elements : 824
Stream size : 21.5 KiB (0%)
Language : Danish
Default : No
Forced : No

Text #6
ID : 8
Format : UTF-8
Codec ID : S_TEXT/UTF8
Codec ID/Info : UTF-8 Plain Text
Duration : 2 h 9 min
Bit rate : 25 b/s
Count of elements : 824
Stream size : 23.8 KiB (0%)
Language : German
Default : No
Forced : No

Text #7
ID : 9
Format : UTF-8
Codec ID : S_TEXT/UTF8
Codec ID/Info : UTF-8 Plain Text
Duration : 2 h 9 min
Bit rate : 39 b/s
Count of elements : 891
Stream size : 37.0 KiB (0%)
Language : Greek
Default : No
Forced : No

Text #8
ID : 10
Format : UTF-8
Codec ID : S_TEXT/UTF8
Codec ID/Info : UTF-8 Plain Text
Duration : 2 h 9 min
Bit rate : 22 b/s
Count of elements : 831
Stream size : 21.3 KiB (0%)
Title : Latin American
Language : Spanish
Default : No
Forced : No

Text #9
ID : 11
Format : UTF-8
Codec ID : S_TEXT/UTF8
Codec ID/Info : UTF-8 Plain Text
Duration : 2 h 9 min
Bit rate : 22 b/s
Count of elements : 828
Stream size : 21.6 KiB (0%)
Title : European
Language : Spanish
Default : No
Forced : No

Text #10
ID : 12
Format : UTF-8
Codec ID : S_TEXT/UTF8
Codec ID/Info : UTF-8 Plain Text
Duration : 2 h 9 min
Bit rate : 21 b/s
Count of elements : 761
Stream size : 19.9 KiB (0%)
Language : Finnish
Default : No
Forced : No

Text #11
ID : 13
Format : UTF-8
Codec ID : S_TEXT/UTF8
Codec ID/Info : UTF-8 Plain Text
Duration : 2 h 9 min
Bit rate : 23 b/s
Count of elements : 809
Stream size : 22.4 KiB (0%)
Language : French
Default : No
Forced : No

Text #12
ID : 14
Format : UTF-8
Codec ID : S_TEXT/UTF8
Codec ID/Info : UTF-8 Plain Text
Duration : 2 h 9 min
Bit rate : 35 b/s
Count of elements : 830
Stream size : 33.9 KiB (0%)
Language : Hebrew
Default : No
Forced : No

Text #13
ID : 15
Format : UTF-8
Codec ID : S_TEXT/UTF8
Codec ID/Info : UTF-8 Plain Text
Duration : 2 h 9 min
Bit rate : 23 b/s
Count of elements : 830
Stream size : 22.1 KiB (0%)
Language : Hungarian
Default : No
Forced : No

Text #14
ID : 16
Format : UTF-8
Codec ID : S_TEXT/UTF8
Codec ID/Info : UTF-8 Plain Text
Duration : 2 h 9 min
Bit rate : 24 b/s
Count of elements : 824
Stream size : 23.0 KiB (0%)
Language : Indonesian
Default : No
Forced : No

Text #15
ID : 17
Format : UTF-8
Codec ID : S_TEXT/UTF8
Codec ID/Info : UTF-8 Plain Text
Duration : 2 h 9 min
Bit rate : 24 b/s
Count of elements : 819
Stream size : 22.9 KiB (0%)
Language : Italian
Default : No
Forced : No

Text #16
ID : 18
Format : UTF-8
Codec ID : S_TEXT/UTF8
Codec ID/Info : UTF-8 Plain Text
Duration : 2 h 9 min
Bit rate : 20 b/s
Count of elements : 849
Stream size : 19.0 KiB (0%)
Language : Japanese
Default : No
Forced : No

Text #17
ID : 19
Format : UTF-8
Codec ID : S_TEXT/UTF8
Codec ID/Info : UTF-8 Plain Text
Duration : 2 h 9 min
Bit rate : 23 b/s
Count of elements : 834
Stream size : 22.4 KiB (0%)
Language : Korean
Default : No
Forced : No

Text #18
ID : 20
Format : UTF-8
Codec ID : S_TEXT/UTF8
Codec ID/Info : UTF-8 Plain Text
Duration : 2 h 9 min
Bit rate : 21 b/s
Count of elements : 805
Stream size : 20.2 KiB (0%)
Language : Norwegian Bokmal
Default : No
Forced : No

Text #19
ID : 21
Format : UTF-8
Codec ID : S_TEXT/UTF8
Codec ID/Info : UTF-8 Plain Text
Duration : 2 h 9 min
Bit rate : 21 b/s
Count of elements : 796
Stream size : 20.5 KiB (0%)
Language : Dutch
Default : No
Forced : No

Text #20
ID : 22
Format : UTF-8
Codec ID : S_TEXT/UTF8
Codec ID/Info : UTF-8 Plain Text
Duration : 2 h 9 min
Bit rate : 20 b/s
Count of elements : 811
Stream size : 19.8 KiB (0%)
Language : Polish
Default : No
Forced : No

Text #21
ID : 23
Format : UTF-8
Codec ID : S_TEXT/UTF8
Codec ID/Info : UTF-8 Plain Text
Duration : 2 h 9 min
Bit rate : 21 b/s
Count of elements : 835
Stream size : 20.4 KiB (0%)
Title : Brazilian
Language : Portuguese
Default : No
Forced : No

Text #22
ID : 24
Format : UTF-8
Codec ID : S_TEXT/UTF8
Codec ID/Info : UTF-8 Plain Text
Duration : 2 h 9 min
Bit rate : 23 b/s
Count of elements : 816
Stream size : 22.0 KiB (0%)
Title : European
Language : Portuguese
Default : No
Forced : No

Text #23
ID : 25
Format : UTF-8
Codec ID : S_TEXT/UTF8
Codec ID/Info : UTF-8 Plain Text
Duration : 2 h 9 min
Bit rate : 23 b/s
Count of elements : 827
Stream size : 21.9 KiB (0%)
Language : Romanian
Default : No
Forced : No

Text #24
ID : 26
Format : UTF-8
Codec ID : S_TEXT/UTF8
Codec ID/Info : UTF-8 Plain Text
Duration : 2 h 9 min
Bit rate : 38 b/s
Count of elements : 815
Stream size : 36.8 KiB (0%)
Language : Russian
Default : No
Forced : No

Text #25
ID : 27
Format : UTF-8
Codec ID : S_TEXT/UTF8
Codec ID/Info : UTF-8 Plain Text
Duration : 2 h 9 min
Bit rate : 22 b/s
Count of elements : 777
Stream size : 21.1 KiB (0%)
Language : Swedish
Default : No
Forced : No

Text #26
ID : 28
Format : UTF-8
Codec ID : S_TEXT/UTF8
Codec ID/Info : UTF-8 Plain Text
Duration : 2 h 9 min
Bit rate : 58 b/s
Count of elements : 830
Stream size : 55.3 KiB (0%)
Language : Thai
Default : No
Forced : No

Text #27
ID : 29
Format : UTF-8
Codec ID : S_TEXT/UTF8
Codec ID/Info : UTF-8 Plain Text
Duration : 2 h 9 min
Bit rate : 23 b/s
Count of elements : 775
Stream size : 22.1 KiB (0%)
Language : Turkish
Default : No
Forced : No

Text #28
ID : 30
Format : UTF-8
Codec ID : S_TEXT/UTF8
Codec ID/Info : UTF-8 Plain Text
Duration : 2 h 9 min
Bit rate : 28 b/s
Count of elements : 830
Stream size : 26.9 KiB (0%)
Language : Vietnamese
Default : No
Forced : No

Text #29
ID : 31
Format : UTF-8
Codec ID : S_TEXT/UTF8
Codec ID/Info : UTF-8 Plain Text
Duration : 2 h 9 min
Bit rate : 20 b/s
Count of elements : 830
Stream size : 19.2 KiB (0%)
Title : 中文(简体)
Language : 中文
Default : No
Forced : No

Text #30
ID : 32
Format : UTF-8
Codec ID : S_TEXT/UTF8
Codec ID/Info : UTF-8 Plain Text
Duration : 2 h 9 min
Bit rate : 21 b/s
Count of elements : 830
Stream size : 20.4 KiB (0%)
Title : 中文(繁体)
Language : 中文
Default : No
Forced : No

Menu
00:00:00.000 : enart 01
02:05:26.450 : en:Credits

资源速度为零或资源敏感被和谐时,推荐使用qBittorrent等下载软件,有条件的推荐115更好的下载软件!

下载地址:


游客,如果您要查看本帖隐藏内容请回复









上一篇:囊肿 / CYST (2020) 4K高清版本下载
下一篇:奇异博士2:疯狂多元宇宙 [简繁中字] (2022) 4K高清版本下载
回复

使用道具 举报

1

主题

1603

帖子

4417

积分

4K家园VIP

Rank: 9Rank: 9Rank: 9

积分
4417
发表于 6 天前 | 显示全部楼层
在撸一遍。。。
回复 支持 反对

使用道具 举报

0

主题

27

帖子

86

积分

新手上路

Rank: 1

积分
86
发表于 6 天前 | 显示全部楼层
回复

使用道具 举报

0

主题

8240

帖子

1万

积分

4K家园VIP

Rank: 9Rank: 9Rank: 9

积分
18965
发表于 5 天前 | 显示全部楼层
太好啦&萬分感謝版主的無私發佈分享%
回复 支持 反对

使用道具 举报

0

主题

42

帖子

1290

积分

注册会员

Rank: 2

积分
1290
发表于 5 天前 | 显示全部楼层
是我喜欢电影类型。
回复 支持 反对

使用道具 举报

0

主题

3

帖子

16

积分

新手上路

Rank: 1

积分
16
发表于 5 天前 | 显示全部楼层
好看值得推荐
回复 支持 反对

使用道具 举报

您需要登录后才可以回帖 登录 | 立即注册

本版积分规则

精彩图文
Archiver|手机版|TAG|Sitemap|新帖|专题|联系我们:邮箱: 4kjia.com@gmail.com   

4k家园   ©2019