[4K电影] 奇异博士2:疯狂多元宇宙 [简繁中字] (2022) 4K高清版本下载

    [复制链接]

2118

主题

2259

帖子

1万

积分

超级版主

Rank: 8Rank: 8

积分
16577
 楼主| 发表于 2022-6-22 00:24:39 | 显示全部楼层 |阅读模式
本帖最后由 最爱4K哟 于 2022-6-22 21:19 编辑

QQ图片20220622000457_副本.png

◎译  名 奇异博士2:疯狂多元宇宙/奇异博士2/斯特兰奇博士2/奇异博士2:失控多重宇宙(港/台)/奇异博士2: 失控多元宇宙(港)/Doctor Strange 2/Doctor Strange: in the Multiverse of Madness
◎片  名 Doctor Strange in the Multiverse of Madness
◎年  代 2022
◎产  地 美国
◎类  别 动作/恐怖/奇幻/冒险
◎语  言 英语
◎上映日期 2022-05-04(中国台湾)/2022-05-06(美国)
◎IMDb评分  7.3/10 from 209927 users
◎IMDb链接  https://www.imdb.com/title/tt9419884/
◎豆瓣评分 0/10 from 0 users
◎豆瓣链接 https://movie.douban.com/subject/30304994/
◎导  演 山姆·雷米 Sam Raimi
◎编  剧 迈克尔·沃尔德伦 Michael Waldron / 杰德·哈雷·巴特利特 Jade Halley Bartlett  / 史蒂夫·迪特寇 Steve Ditko / 斯坦·李 Stan Lee
◎主  演 本尼迪克特·康伯巴奇 Benedict Cumberbatch
       伊丽莎白·奥尔森 Elizabeth Olsen
       切瓦特·埃加福 Chiwetel Ejiofor
       本尼迪克特·王 Benedict Wong
       克索斯利尔·戈麦斯 Xochitl Gomez
       瑞秋·麦克亚当斯 Rachel McAdams
       迈克尔·斯图巴 Michael Stuhlbarg
       帕特里克·斯图尔特 Patrick Stewart
       海莉·阿特维尔 Hayley Atwell
       约翰·卡拉辛斯基 John Krasinski
       拉什纳·林奇 Lashana Lynch
       安松·蒙特 Anson Mount
       查理兹·塞隆 Charlize Theron
       希拉·阿蒂姆 Sheila Atim
       亚当·赫吉尔 Adam Hugill
       亚子·米切尔 Ako Mitchell
       杨沫沫 Momo Yeung
       丹尼尔·斯温 Daniel Swain
       多波·雷斯尼怀罗 Topo Wresniwiro
       伊登·纳森森 Eden Nathenson
       维尼·莫利 Vinny Moli
       大卫·谢 David Tse
       乔丹·亚历桑德拉 Jordan Alexandra
       迈克尔·沃尔德伦 Michael Waldron
       朱利安·希威德 Julian Hilliard
       杰特·克莱恩 Jett Klyne
       布鲁斯·坎贝尔 Bruce Campbell
       马里安·洛伦西克 Marian Lorencik


◎简  介


  充满无限未知的疯狂多元宇宙即将展开,一切皆有可能。
IMAX版本信息Video
ID : 1
Format : HEVC
Format/Info : High Efficiency Video Coding
Format profile : Main 10@L5@High
HDR format : Dolby Vision, Version 1.0, dvhe.05.06, BL+RPU
Codec ID : dvhe
Codec ID/Info : High Efficiency Video Coding with Dolby Vision
Duration : 2 h 6 min
Bit rate : 16.7 Mb/s
Width : 3 840 pixels
Height : 2 160 pixels
Display aspect ratio : 16:9
Frame rate mode : Constant
Frame rate : 23.976 (24000/1001) FPS
Color space : YUV
Chroma subsampling : 4:2:0
Bit depth : 10 bits
Bits/(Pixel*Frame) : 0.084
Stream size : 14.7 GiB (96%)
Default : Yes
Alternate group : 1
Encoded date : UTC 2022-06-22 07:30:39
Tagged date : UTC 2022-06-22 07:33:40
Color range : Full
Codec configuration box : hvcC+dvcC

Audio
ID : 2
Format : E-AC-3 JOC
Format/Info : Enhanced AC-3 with Joint Object Coding
Commercial name : Dolby Digital Plus with Dolby Atmos
Codec ID : ec-3
Duration : 2 h 6 min
Bit rate mode : Constant
Bit rate : 768 kb/s
Maximum bit rate : 811 kb/s
Channel(s) : 6 channels
Channel layout : L R C LFE Ls Rs
Sampling rate : 48.0 kHz
Frame rate : 31.250 FPS (1536 SPF)
Compression mode : Lossy
Stream size : 695 MiB (4%)
Title : English
Language : English
Service kind : Complete Main
Default : Yes
Alternate group : 1
Tagged date : UTC 2022-06-22 07:33:40
Complexity index : Not present / 16
Number of dynamic objects : 15
Bed channel count : 1 channel
Bed channel configuration : LFE

Text #1
ID : 3
Format : Timed Text
Codec ID : tx3g
Duration : 2 h 6 min
Bit rate mode : Variable
Bit rate : 57 b/s
Stream size : 53.1 KiB (0%)
Title : English
Language : English
Forced : No
Encoded date : UTC 2022-06-22 07:33:35
Tagged date : UTC 2022-06-22 07:33:40

Text #2
ID : 4
Format : Timed Text
Codec ID : tx3g
Duration : 2 h 6 min
Bit rate mode : Variable
Bit rate : 42 b/s
Stream size : 39.1 KiB (0%)
Title : English
Language : English
Forced : No
Encoded date : UTC 2022-06-22 07:33:35
Tagged date : UTC 2022-06-22 07:33:40

Text #3
ID : 5
Format : Timed Text
Codec ID : tx3g
Duration : 26 min 12 s
Bit rate mode : Variable
Bit rate : 2 b/s
Stream size : 302 Bytes (0%)
Title : English
Language : English
Forced : No
Encoded date : UTC 2022-06-22 07:33:35
Tagged date : UTC 2022-06-22 07:33:40

Text #4
ID : 6
Format : Timed Text
Codec ID : tx3g
Duration : 2 h 6 min
Bit rate mode : Variable
Bit rate : 35 b/s
Stream size : 32.8 KiB (0%)
Title : Chinese-Cantonese
Language : Chinese
Forced : No
Encoded date : UTC 2022-06-22 07:33:35
Tagged date : UTC 2022-06-22 07:33:40

Text #5
ID : 7
Format : Timed Text
Codec ID : tx3g
Duration : 2 h 6 min
Bit rate mode : Variable
Bit rate : 39 b/s
Stream size : 36.2 KiB (0%)
Title : 中文(简体)
Language : 中文
Forced : No
Encoded date : UTC 2022-06-22 07:33:36
Tagged date : UTC 2022-06-22 07:33:40

Text #6
ID : 8
Format : Timed Text
Codec ID : tx3g
Duration : 2 h 6 min
Bit rate mode : Variable
Bit rate : 35 b/s
Stream size : 32.6 KiB (0%)
Title : 中文(繁体)
Language : 中文
Forced : No
Encoded date : UTC 2022-06-22 07:33:36
Tagged date : UTC 2022-06-22 07:33:40


Text #7
ID : 9
Format : Timed Text
Codec ID : tx3g
Duration : 2 h 6 min
Bit rate mode : Variable
Bit rate : 40 b/s
Stream size : 36.9 KiB (0%)
Title : Czech
Language : Czech
Forced : No
Encoded date : UTC 2022-06-22 07:33:36
Tagged date : UTC 2022-06-22 07:33:40

Text #8
ID : 10
Format : Timed Text
Codec ID : tx3g
Duration : 2 h 6 min
Bit rate mode : Variable
Bit rate : 35 b/s
Stream size : 32.3 KiB (0%)
Title : Danish
Language : Danish
Forced : No
Encoded date : UTC 2022-06-22 07:33:36
Tagged date : UTC 2022-06-22 07:33:40

Text #9
ID : 11
Format : Timed Text
Codec ID : tx3g
Duration : 2 h 6 min
Bit rate mode : Variable
Bit rate : 39 b/s
Stream size : 36.3 KiB (0%)
Title : Dutch
Language : Dutch
Forced : No
Encoded date : UTC 2022-06-22 07:33:36
Tagged date : UTC 2022-06-22 07:33:40

Text #10
ID : 12
Format : Timed Text
Codec ID : tx3g
Duration : 2 h 6 min
Bit rate mode : Variable
Bit rate : 42 b/s
Stream size : 38.8 KiB (0%)
Title : Finnish
Language : Finnish
Forced : No
Encoded date : UTC 2022-06-22 07:33:37
Tagged date : UTC 2022-06-22 07:33:40

Text #11
ID : 13
Format : Timed Text
Codec ID : tx3g
Duration : 2 h 6 min
Bit rate mode : Variable
Bit rate : 65 b/s
Stream size : 60.3 KiB (0%)
Title : French
Language : French
Forced : No
Encoded date : UTC 2022-06-22 07:33:37
Tagged date : UTC 2022-06-22 07:33:40

Text #12
ID : 14
Format : Timed Text
Codec ID : tx3g
Duration : 2 h 6 min
Bit rate mode : Variable
Bit rate : 49 b/s
Stream size : 45.0 KiB (0%)
Title : French
Language : French
Forced : No
Encoded date : UTC 2022-06-22 07:33:37
Tagged date : UTC 2022-06-22 07:33:40

Text #13
ID : 15
Format : Timed Text
Codec ID : tx3g
Duration : 2 h 6 min
Bit rate mode : Variable
Bit rate : 45 b/s
Stream size : 41.6 KiB (0%)
Title : French
Language : French
Forced : No
Encoded date : UTC 2022-06-22 07:33:37
Tagged date : UTC 2022-06-22 07:33:40

Text #14
ID : 16
Format : Timed Text
Codec ID : tx3g
Duration : 2 h 6 min
Bit rate mode : Variable
Bit rate : 38 b/s
Stream size : 35.0 KiB (0%)
Title : French
Language : French
Forced : No
Encoded date : UTC 2022-06-22 07:33:37
Tagged date : UTC 2022-06-22 07:33:40

Text #15
ID : 17
Format : Timed Text
Codec ID : tx3g
Duration : 2 h 6 min
Bit rate mode : Variable
Bit rate : 38 b/s
Stream size : 35.4 KiB (0%)
Title : German
Language : German
Forced : No
Encoded date : UTC 2022-06-22 07:33:38
Tagged date : UTC 2022-06-22 07:33:40

Text #16
ID : 18
Format : Timed Text
Codec ID : tx3g
Duration : 2 h 6 min
Bit rate mode : Variable
Bit rate : 50 b/s
Stream size : 45.9 KiB (0%)
Title : German
Language : German
Forced : No
Encoded date : UTC 2022-06-22 07:33:38
Tagged date : UTC 2022-06-22 07:33:40

Text #17
ID : 19
Format : Timed Text
Codec ID : tx3g
Duration : 2 h 6 min
Bit rate mode : Variable
Bit rate : 67 b/s
Stream size : 61.8 KiB (0%)
Title : Greek
Language : Greek
Forced : No
Encoded date : UTC 2022-06-22 07:33:38
Tagged date : UTC 2022-06-22 07:33:40

Text #18
ID : 20
Format : Timed Text
Codec ID : tx3g
Duration : 2 h 6 min
Bit rate mode : Variable
Bit rate : 38 b/s
Stream size : 35.3 KiB (0%)
Title : Hungarian
Language : Hungarian
Forced : No
Encoded date : UTC 2022-06-22 07:33:38
Tagged date : UTC 2022-06-22 07:33:40

Text #19
ID : 21
Format : Timed Text
Codec ID : tx3g
Duration : 2 h 6 min
Bit rate mode : Variable
Bit rate : 42 b/s
Stream size : 38.5 KiB (0%)
Title : Icelandic
Language : Icelandic
Forced : No
Encoded date : UTC 2022-06-22 07:33:38
Tagged date : UTC 2022-06-22 07:33:40

Text #20
ID : 22
Format : Timed Text
Codec ID : tx3g
Duration : 2 h 6 min
Bit rate mode : Variable
Bit rate : 43 b/s
Stream size : 40.0 KiB (0%)
Title : Italian
Language : Italian
Forced : No
Encoded date : UTC 2022-06-22 07:33:38
Tagged date : UTC 2022-06-22 07:33:40

Text #21
ID : 23
Format : Timed Text
Codec ID : tx3g
Duration : 2 h 6 min
Bit rate mode : Variable
Bit rate : 36 b/s
Stream size : 33.5 KiB (0%)
Title : Japanese
Language : Japanese
Forced : No
Encoded date : UTC 2022-06-22 07:33:38
Tagged date : UTC 2022-06-22 07:33:40

Text #22
ID : 24
Format : Timed Text
Codec ID : tx3g
Duration : 2 h 6 min
Bit rate mode : Variable
Bit rate : 43 b/s
Stream size : 39.4 KiB (0%)
Title : Korean
Language : Korean
Forced : No
Encoded date : UTC 2022-06-22 07:33:38
Tagged date : UTC 2022-06-22 07:33:40

Text #23
ID : 25
Format : Timed Text
Codec ID : tx3g
Duration : 2 h 6 min
Bit rate mode : Variable
Bit rate : 38 b/s
Stream size : 35.6 KiB (0%)
Title : Norwegian
Language : Norwegian
Forced : No
Encoded date : UTC 2022-06-22 07:33:38
Tagged date : UTC 2022-06-22 07:33:40

Text #24
ID : 26
Format : Timed Text
Codec ID : tx3g
Duration : 2 h 6 min
Bit rate mode : Variable
Bit rate : 35 b/s
Stream size : 32.6 KiB (0%)
Title : Polish
Language : Polish
Forced : No
Encoded date : UTC 2022-06-22 07:33:39
Tagged date : UTC 2022-06-22 07:33:40

Text #25
ID : 27
Format : Timed Text
Codec ID : tx3g
Duration : 2 h 6 min
Bit rate mode : Variable
Bit rate : 41 b/s
Stream size : 38.0 KiB (0%)
Title : Portuguese
Language : Portuguese
Forced : No
Encoded date : UTC 2022-06-22 07:33:39
Tagged date : UTC 2022-06-22 07:33:40

Text #26
ID : 28
Format : Timed Text
Codec ID : tx3g
Duration : 2 h 6 min
Bit rate mode : Variable
Bit rate : 42 b/s
Stream size : 38.4 KiB (0%)
Title : Portuguese
Language : Portuguese
Forced : No
Encoded date : UTC 2022-06-22 07:33:39
Tagged date : UTC 2022-06-22 07:33:40

Text #27
ID : 29
Format : Timed Text
Codec ID : tx3g
Duration : 2 h 6 min
Bit rate mode : Variable
Bit rate : 54 b/s
Stream size : 49.5 KiB (0%)
Title : Portuguese
Language : Portuguese
Forced : No
Encoded date : UTC 2022-06-22 07:33:39
Tagged date : UTC 2022-06-22 07:33:40

Text #28
ID : 30
Format : Timed Text
Codec ID : tx3g
Duration : 2 h 6 min
Bit rate mode : Variable
Bit rate : 43 b/s
Stream size : 39.3 KiB (0%)
Title : Romanian
Language : Romanian
Forced : No
Encoded date : UTC 2022-06-22 07:33:39
Tagged date : UTC 2022-06-22 07:33:40

Text #29
ID : 31
Format : Timed Text
Codec ID : tx3g
Duration : 2 h 6 min
Bit rate mode : Variable
Bit rate : 37 b/s
Stream size : 34.2 KiB (0%)
Title : Slovak
Language : Slovak
Forced : No
Encoded date : UTC 2022-06-22 07:33:40
Tagged date : UTC 2022-06-22 07:33:40

Text #30
ID : 32
Format : Timed Text
Codec ID : tx3g
Duration : 2 h 6 min
Bit rate mode : Variable
Bit rate : 43 b/s
Stream size : 39.6 KiB (0%)
Title : Spanish
Language : Spanish
Forced : No
Encoded date : UTC 2022-06-22 07:33:40
Tagged date : UTC 2022-06-22 07:33:40

Text #31
ID : 33
Format : Timed Text
Codec ID : tx3g
Duration : 2 h 6 min
Bit rate mode : Variable
Bit rate : 42 b/s
Stream size : 39.1 KiB (0%)
Title : Spanish
Language : Spanish
Forced : No
Encoded date : UTC 2022-06-22 07:33:40
Tagged date : UTC 2022-06-22 07:33:40

Text #32
ID : 34
Format : Timed Text
Codec ID : tx3g
Duration : 2 h 6 min
Bit rate mode : Variable
Bit rate : 40 b/s
Stream size : 36.8 KiB (0%)
Title : Spanish-EU
Language : Spanish
Forced : No
Encoded date : UTC 2022-06-22 07:33:40
Tagged date : UTC 2022-06-22 07:33:40

Text #33
ID : 35
Format : Timed Text
Codec ID : tx3g
Duration : 2 h 6 min
Bit rate mode : Variable
Bit rate : 39 b/s
Stream size : 35.7 KiB (0%)
Title : Swedish
Language : Swedish
Forced : No
Encoded date : UTC 2022-06-22 07:33:40
Tagged date : UTC 2022-06-22 07:33:40

Text #34
ID : 36
Format : Timed Text
Codec ID : tx3g
Duration : 2 h 6 min
Bit rate mode : Variable
Bit rate : 41 b/s
Stream size : 38.1 KiB (0%)
Title : Turkish
Language : Turkish
Forced : No
Encoded date : UTC 2022-06-22 07:33:40
Tagged date : UTC 2022-06-22 07:33:40



Video
ID : 1
Format : HEVC
Format/Info : High Efficiency Video Coding
Format profile : Main 10@L5@High
HDR format : SMPTE ST 2086, HDR10 compatible
Codec ID : V_MPEGH/ISO/HEVC
Duration : 2 h 6 min
Bit rate : 24.1 Mb/s
Width : 3 840 pixels
Height : 1 608 pixels
Display aspect ratio : 2.40:1
Frame rate mode : Constant
Frame rate : 23.976 FPS
Color space : YUV
Chroma subsampling : 4:2:0 (Type 2)
Bit depth : 10 bits
Bits/(Pixel*Frame) : 0.163
Stream size : 21.3 GiB (97%)
Default : Yes
Forced : No
Color range : Limited
Color primaries : BT.2020
Transfer characteristics : PQ
Matrix coefficients : BT.2020 non-constant
Mastering display color primaries : BT.2020
Mastering display luminance : min: 0.0050 cd/m2, max: 1000 cd/m2
Maximum Content Light Level : 1478 cd/m2
Maximum Frame-Average Light Level : 916 cd/m2

Audio
ID : 2
Format : E-AC-3 JOC
Format/Info : Enhanced AC-3 with Joint Object Coding
Commercial name : Dolby Digital Plus with Dolby Atmos
Codec ID : A_EAC3
Duration : 2 h 6 min
Bit rate mode : Constant
Bit rate : 768 kb/s
Channel(s) : 6 channels
Channel layout : L R C LFE Ls Rs
Sampling rate : 48.0 kHz
Frame rate : 31.250 FPS (1536 SPF)
Compression mode : Lossy
Stream size : 695 MiB (3%)
Language : English
Service kind : Complete Main
Default : Yes
Forced : No
Complexity index : 16
Number of dynamic objects : 15
Bed channel count : 1 channel
Bed channel configuration : LFE

Text #1
ID : 3
Format : UTF-8
Codec ID : S_TEXT/UTF8
Codec ID/Info : UTF-8 Plain Text
Duration : 25 min 8 s
Bit rate : 1 b/s
Count of elements : 10
Stream size : 265 Bytes (0%)
Title : FORCED
Language : English
Default : No
Forced : Yes

Text #2
ID : 4
Format : UTF-8
Codec ID : S_TEXT/UTF8
Codec ID/Info : UTF-8 Plain Text
Duration : 2 h 5 min
Bit rate : 37 b/s
Count of elements : 1249
Stream size : 34.1 KiB (0%)
Language : English
Default : Yes
Forced : No

资源速度为零或资源敏感被和谐时,推荐使用qBittorrent等下载软件,有条件的推荐115更好的下载软件!

下载地址:

[4Kjia]奇异博士2:疯狂多元宇宙(21.99GB)(中英简繁中字)Doctor.Strange.in.the.Multiverse.of.Madness.2022.2160p.WEB-DL.DDP5.1.Atmos.DV.MKV.x265-DVSUX
游客,如果您要查看本帖隐藏内容请回复

[4kjia]奇异博士2:疯狂多元宇宙(5.25GB)(简繁中英字幕)Doctor.Strange.in.the.Multiverse.of.Madness.2022.2160p.WEB-DL.HDR.x265.10bit.ATMOS.DD5.1.[ALANG]
游客,如果您要查看本帖隐藏内容请回复

PS:IMAX 均为4K高清简繁中字版本
游客,如果您要查看本帖隐藏内容请回复

游客,如果您要查看本帖隐藏内容请回复

游客,如果您要查看本帖隐藏内容请回复


PS:以下均为英文字幕版本
游客,如果您要查看本帖隐藏内容请回复

游客,如果您要查看本帖隐藏内容请回复

游客,如果您要查看本帖隐藏内容请回复

游客,如果您要查看本帖隐藏内容请回复







上一篇:使徒 (简繁中字)/ Apostle (2018) 4K高清版本下载
下一篇:隐秘的生活 [简繁中字] / A Hidden Life (2019) 4K高清版本下载
回复

使用道具 举报

0

主题

1383

帖子

4165

积分

4K家园VIP

Rank: 9Rank: 9Rank: 9

积分
4165
发表于 2022-6-22 00:24:43 | 显示全部楼层
报告!别开枪,我就是路过来看看的。。。
回复 支持 反对

使用道具 举报

3

主题

1616

帖子

4444

积分

4K家园VIP

Rank: 9Rank: 9Rank: 9

积分
4444
发表于 2022-6-22 00:29:35 | 显示全部楼层
额.....这个可以有
回复 支持 反对

使用道具 举报

0

主题

4

帖子

43

积分

新手上路

Rank: 1

积分
43
发表于 2022-6-22 01:12:01 | 显示全部楼层
,我就是路过来看看的
回复 支持 反对

使用道具 举报

0

主题

20

帖子

147

积分

新手上路

Rank: 1

积分
147
发表于 2022-6-22 01:15:52 | 显示全部楼层
123
回复

使用道具 举报

0

主题

2

帖子

25

积分

新手上路

Rank: 1

积分
25
发表于 2022-6-22 01:18:52 | 显示全部楼层
谢谢分享
回复

使用道具 举报

46

主题

1452

帖子

4184

积分

4K家园VIP

Rank: 9Rank: 9Rank: 9

积分
4184
发表于 2022-6-22 02:48:34 | 显示全部楼层
顶起出售广告位
回复 支持 反对

使用道具 举报

0

主题

17

帖子

669

积分

新手上路

Rank: 1

积分
669
发表于 2022-6-22 04:16:55 | 显示全部楼层
太棒了
回复

使用道具 举报

1

主题

1247

帖子

3759

积分

4K家园VIP

Rank: 9Rank: 9Rank: 9

积分
3759
发表于 2022-6-22 06:18:48 | 显示全部楼层
怎么这么大,希望我电视能看啊
回复 支持 反对

使用道具 举报

0

主题

5

帖子

50

积分

新手上路

Rank: 1

积分
50
发表于 2022-6-22 06:23:57 | 显示全部楼层
终于有了
回复

使用道具 举报

您需要登录后才可以回帖 登录 | 立即注册

本版积分规则

精彩图文
Archiver|手机版|TAG|Sitemap|新帖|专题|联系我们:邮箱: 4kjia.com@gmail.com   

4k家园   ©2019