[4K电影] 隐秘的生活 [简繁中字] / A Hidden Life (2019) 4K高清版本下载

[复制链接]

2299

主题

2448

帖子

1万

积分

超级版主

Rank: 8Rank: 8

积分
17752
 楼主| 发表于 2022-6-23 09:50:30 | 显示全部楼层 |阅读模式
本帖最后由 最爱4K哟 于 2022-6-23 09:59 编辑

QQ图片20220623094058_副本.png

◎译  名 隐秘的生活/Radegund/拉黛贡德/隐匿生活/隐秘生活/隐藏的生活(台)
◎片  名 A Hidden Life
◎年  代 2019
◎产  地 美国,英国,德国
◎类  别 剧情 / 爱情 / 传记 / 战争
◎语  言 英语,德语,意大利语
◎上映日期 2019-05-19(戛纳电影节) / 2019-12-13(美国)
◎IMDb评分  7.3/10 from 23672 users
◎IMDb链接  https://www.imdb.com/title/tt5827916/
◎豆瓣评分 7.7/10 from 10851 users
◎豆瓣链接 https://movie.douban.com/subject/26823502/
◎片  长 173分钟(戛纳电影节)
◎导  演 泰伦斯·马力克 Terrence Malick
◎编  剧 泰伦斯·马力克 Terrence Malick
◎主  演 奥古斯特·迪赫 August Diehl
       瓦莱丽·帕赫纳 Valerie Pachner
       玛丽亚·西蒙 Maria Simon
       卡琳·纽荷瑟 Karin Neuh?user
       托比亚斯·莫雷蒂 Tobias Moretti
       乌尔里希·马特斯 Ulrich Matthes
       马提亚斯·修奈尔 Matthias Schoenaerts
       弗兰茨·罗戈夫斯基 Franz Rogowski
       卡尔·马克维斯 Karl Markovics
       布鲁诺·冈茨 Bruno Ganz
       迈克尔·恩奎斯特 Michael Nyqvist
       沃尔夫冈·迈克尔 Wolfgang Michael
       约翰内斯·克里施 Johannes Krisch
       约翰·雷森 Johan Leysen
       马丁·乌特克 Martin Wuttke
       瓦尔德马·科布斯 Waldemar Kobus
       索菲·罗伊斯 Sophie Rois
       亚历山大·费林 Alexander Fehling
       迪莫·亚历克谢夫 Dimo Alexiev
       马克·瓦斯科 Mark Waschke
       马克斯·马拉特斯塔 Max Malatesta
       埃尔敏·西贾米贾 Ermin Sijamija
       乌尔里奇·布兰德霍夫 Ulrich Brandhoff
       迈克尔·史戴诺邱 Michael Steinocher
       亚历山大·拉兹尊 Alexander Radszun
       托马斯·马拉斯 Thomas Mraz
       迪特·考斯里克 Dieter Kosslick
       贝恩德·霍尔谢尔 Bernd H?lscher
       克里斯蒂安森格沃德 Christian Sengewald
       约翰尼斯·努斯鲍姆 Johannes Nussbaum
       伦纳德·昆兹 Leonard Kunz
       马克斯·毛夫 Max Mauff
       莫妮卡·伦纳兹 Monika Lennartz
       乔尔·巴斯曼 Joel Basman
       尤尔根·普洛斯诺 Jürgen Prochnow
       尼可拉斯·瑞肯 Nicholas Reinke
       克里斯·泰辛格 Chris Theisinger


◎简  介

  泰伦斯·马力克继1998年《细细的红线》后,将再次执导二战题材影片。新片取材自真实历史事件,讲述奥地利士兵弗兰茨·杰格斯泰德(奧古斯特·迪赫饰)因在二战时期拒绝为纳粹德国而战,最终被判死刑。据称这将是一部与《细细的红线》风格完全不同的二战影片。该片今夏德国开机。

◎获奖情况

  第72届戛纳电影节 ?(2019)
  主竞赛单元金棕榈奖(提名) 泰伦斯·马力克

  第67届美国音效剪辑协会奖 ?(2020)
  金卷轴奖最佳电影音效剪辑(提名)

  第91届美国国家评论协会奖 ?(2019)
  十佳独立电影

  第35届美国独立精神奖 ?(2020)
  最佳影片(提名)

Video
ID : 1
Format : HEVC
Format/Info : High Efficiency Video Coding
Format profile : Main 10@L5@High
HDR format : Dolby Vision, Version 1.0, dvhe.05.06, BL+RPU
Codec ID : V_MPEGH/ISO/HEVC
Duration : 2 h 54 min
Bit rate : 15.7 Mb/s
Width : 3 840 pixels
Height : 2 160 pixels
Display aspect ratio : 16:9
Frame rate mode : Constant
Frame rate : 23.976 (24000/1001) FPS
Color space : YUV
Chroma subsampling : 4:2:0
Bit depth : 10 bits
Bits/(Pixel*Frame) : 0.079
Stream size : 19.2 GiB (75%)
Language : English
Default : Yes
Forced : No
Color range : Full

Audio #1
ID : 2
Format : DTS XLL
Format/Info : Digital Theater Systems
Commercial name : DTS-HD Master Audio
Codec ID : A_DTS
Duration : 2 h 54 min
Bit rate mode : Variable
Bit rate : 4 899 kb/s
Channel(s) : 8 channels
Channel layout : C L R LFE Lb Rb Lss Rss
Sampling rate : 48.0 kHz
Frame rate : 93.750 FPS (512 SPF)
Bit depth : 24 bits
Compression mode : Lossless
Stream size : 5.97 GiB (23%)
Title : DTS-HD MA 7.1
Language : English
Default : Yes
Forced : No

Audio #2
ID : 3
Format : E-AC-3
Format/Info : Enhanced AC-3
Commercial name : Dolby Digital Plus
Codec ID : A_EAC3
Duration : 2 h 54 min
Bit rate mode : Constant
Bit rate : 256 kb/s
Channel(s) : 6 channels
Channel layout : L R C LFE Ls Rs
Sampling rate : 48.0 kHz
Frame rate : 31.250 FPS (1536 SPF)
Compression mode : Lossy
Stream size : 319 MiB (1%)
Language : English
Service kind : Complete Main
Default : Yes
Forced : No

Text #1
ID : 4
Format : UTF-8
Codec ID : S_TEXT/UTF8
Codec ID/Info : UTF-8 Plain Text
Duration : 2 h 53 min
Bit rate : 26 b/s
Count of elements : 1349
Stream size : 33.7 KiB (0%)
Title : English (SDH)
Language : English
Default : Yes
Forced : No

Text #2
ID : 5
Format : UTF-8
Codec ID : S_TEXT/UTF8
Codec ID/Info : UTF-8 Plain Text
Duration : 2 h 52 min
Bit rate : 19 b/s
Count of elements : 829
Stream size : 25.3 KiB (0%)
Title : Deutsch
Language : German
Default : No
Forced : No

Text #3
ID : 6
Format : UTF-8
Codec ID : S_TEXT/UTF8
Codec ID/Info : UTF-8 Plain Text
Duration : 2 h 52 min
Bit rate : 19 b/s
Count of elements : 831
Stream size : 24.1 KiB (0%)
Title : Español (Latinoamericano)
Language : Spanish
Default : No
Forced : No

Text #4
ID : 7
Format : UTF-8
Codec ID : S_TEXT/UTF8
Codec ID/Info : UTF-8 Plain Text
Duration : 2 h 52 min
Bit rate : 18 b/s
Count of elements : 857
Stream size : 23.4 KiB (0%)
Title : Español
Language : Spanish
Default : No
Forced : No

Text #5
ID : 8
Format : UTF-8
Codec ID : S_TEXT/UTF8
Codec ID/Info : UTF-8 Plain Text
Duration : 2 h 52 min
Bit rate : 20 b/s
Count of elements : 850
Stream size : 25.6 KiB (0%)
Title : Français
Language : French
Default : No
Forced : No

Text #6
ID : 9
Format : UTF-8
Codec ID : S_TEXT/UTF8
Codec ID/Info : UTF-8 Plain Text
Duration : 2 h 52 min
Bit rate : 18 b/s
Count of elements : 842
Stream size : 24.0 KiB (0%)
Title : Français (Canadien)
Language : French
Default : No
Forced : No

Text #7
ID : 10
Format : UTF-8
Codec ID : S_TEXT/UTF8
Codec ID/Info : UTF-8 Plain Text
Duration : 2 h 52 min
Bit rate : 18 b/s
Count of elements : 851
Stream size : 23.6 KiB (0%)
Title : Magyar
Language : Hungarian
Default : No
Forced : No

Text #8
ID : 11
Format : UTF-8
Codec ID : S_TEXT/UTF8
Codec ID/Info : UTF-8 Plain Text
Duration : 2 h 52 min
Bit rate : 19 b/s
Count of elements : 839
Stream size : 24.3 KiB (0%)
Title : Italiano
Language : Italian
Default : No
Forced : No

Text #9
ID : 12
Format : UTF-8
Codec ID : S_TEXT/UTF8
Codec ID/Info : UTF-8 Plain Text
Duration : 2 h 52 min
Bit rate : 16 b/s
Count of elements : 779
Stream size : 20.5 KiB (0%)
Title : Japanese
Language : Japanese
Default : No
Forced : No

Text #10
ID : 13
Format : UTF-8
Codec ID : S_TEXT/UTF8
Codec ID/Info : UTF-8 Plain Text
Duration : 2 h 52 min
Bit rate : 17 b/s
Count of elements : 852
Stream size : 22.3 KiB (0%)
Title : Korean
Language : Korean
Default : No
Forced : No

Text #11
ID : 14
Format : UTF-8
Codec ID : S_TEXT/UTF8
Codec ID/Info : UTF-8 Plain Text
Duration : 2 h 52 min
Bit rate : 16 b/s
Count of elements : 793
Stream size : 20.5 KiB (0%)
Title : Nederlands
Language : Dutch
Default : No
Forced : No

Text #12
ID : 15
Format : UTF-8
Codec ID : S_TEXT/UTF8
Codec ID/Info : UTF-8 Plain Text
Duration : 2 h 52 min
Bit rate : 17 b/s
Count of elements : 832
Stream size : 22.3 KiB (0%)
Title : Polski
Language : Polish
Default : No
Forced : No

Text #13
ID : 16
Format : UTF-8
Codec ID : S_TEXT/UTF8
Codec ID/Info : UTF-8 Plain Text
Duration : 2 h 52 min
Bit rate : 18 b/s
Count of elements : 831
Stream size : 24.0 KiB (0%)
Title : Português (Brasil)
Language : Portuguese
Default : No
Forced : No

Text #14
ID : 17
Format : UTF-8
Codec ID : S_TEXT/UTF8
Codec ID/Info : UTF-8 Plain Text
Duration : 2 h 52 min
Bit rate : 19 b/s
Count of elements : 850
Stream size : 24.4 KiB (0%)
Title : Română
Language : Romanian
Default : No
Forced : No

Text #15
ID : 18
Format : UTF-8
Codec ID : S_TEXT/UTF8
Codec ID/Info : UTF-8 Plain Text
Duration : 2 h 52 min
Bit rate : 16 b/s
Count of elements : 852
Stream size : 21.0 KiB (0%)
Title : Slovenčina
Language : Slovak
Default : No
Forced : No

Text #16
ID : 19
Format : UTF-8
Codec ID : S_TEXT/UTF8
Codec ID/Info : UTF-8 Plain Text
Duration : 2 h 52 min
Bit rate : 18 b/s
Count of elements : 845
Stream size : 24.0 KiB (0%)
Title : Türkçe
Language : Turkish
Default : No
Forced : No

Text #17
ID : 20
Format : UTF-8
Codec ID : S_TEXT/UTF8
Codec ID/Info : UTF-8 Plain Text
Duration : 2 h 52 min
Bit rate : 14 b/s
Count of elements : 853
Stream size : 18.9 KiB (0%)
Title : 中文(繁体)
Language : 中文
Default : No
Forced : No

Text #18
ID : 21
Format : UTF-8
Codec ID : S_TEXT/UTF8
Codec ID/Info : UTF-8 Plain Text
Duration : 2 h 52 min
Bit rate : 14 b/s
Count of elements : 854
Stream size : 18.9 KiB (0%)
Title : 中文(简体)
Language : 中文
Default : No
Forced : No


Menu
00:00:00.000 : :Chapter 01
00:04:54.628 : :Chapter 02
00:08:14.828 : :Chapter 03
00:15:45.153 : :Chapter 04
00:21:19.111 : :Chapter 05
00:27:34.319 : :Chapter 06
00:32:40.542 : :Chapter 07
00:39:45.091 : :Chapter 08
00:45:37.985 : :Chapter 09
00:53:13.857 : :Chapter 10
00:58:10.696 : :Chapter 11
01:05:58.079 : :Chapter 12
01:10:22.510 : :Chapter 13
01:15:46.751 : :Chapter 14
01:23:50.275 : :Chapter 15
01:28:12.496 : :Chapter 16
01:35:25.094 : :Chapter 17
01:40:12.423 : :Chapter 18
01:47:18.807 : :Chapter 19
01:54:59.142 : :Chapter 20
02:00:59.210 : :Chapter 21
02:06:08.519 : :Chapter 22
02:11:11.030 : :Chapter 23
02:18:41.647 : :Chapter 24
02:23:33.855 : :Chapter 25
02:31:11.604 : :Chapter 26
02:38:04.225 : :Chapter 27
02:48:33.770 : :Chapter 28

资源速度为零或资源敏感被和谐时,推荐使用qBittorrent等下载软件,有条件的推荐115更好的下载软件!

下载地址:


游客,如果您要查看本帖隐藏内容请回复

游客,如果您要查看本帖隐藏内容请回复



以下相关以往4K高清版本(无简繁中字版本)
游客,如果您要查看本帖隐藏内容请回复

游客,如果您要查看本帖隐藏内容请回复






上一篇:奇异博士2:疯狂多元宇宙 [简繁中字] (2022) 4K高清版本下载
下一篇:星际旅行8:第一类接触 (1996) 4K高清版本下载
回复

使用道具 举报

47

主题

1488

帖子

4258

积分

4K家园VIP

Rank: 9Rank: 9Rank: 9

积分
4258
发表于 2022-6-23 09:50:34 来自手机 | 显示全部楼层
为毛老子总也抢不到沙发?!!
回复 支持 反对

使用道具 举报

0

主题

8625

帖子

2万

积分

4K家园VIP

Rank: 9Rank: 9Rank: 9

积分
20076
发表于 2022-6-23 10:03:02 | 显示全部楼层
太好啦&萬分感謝版主的無私發佈分享%
回复 支持 反对

使用道具 举报

2

主题

1680

帖子

4680

积分

4K家园VIP

Rank: 9Rank: 9Rank: 9

积分
4680
发表于 2022-6-23 10:34:29 | 显示全部楼层
楼主这资源不错,我收藏了
回复 支持 反对

使用道具 举报

5

主题

1651

帖子

4573

积分

中级会员

Rank: 4

积分
4573
发表于 2022-6-23 10:58:08 来自手机 | 显示全部楼层
不错 支持下
回复 支持 反对

使用道具 举报

2

主题

1441

帖子

4161

积分

中级会员

Rank: 4

积分
4161
发表于 2022-6-23 10:59:22 来自手机 | 显示全部楼层
广告位,,坐下看看
回复 支持 反对

使用道具 举报

1

主题

1355

帖子

4081

积分

4K家园VIP

Rank: 9Rank: 9Rank: 9

积分
4081
发表于 2022-6-23 11:35:25 | 显示全部楼层
撸过
回复 支持 反对

使用道具 举报

0

主题

2

帖子

9

积分

新手上路

Rank: 1

积分
9
发表于 2022-6-23 17:06:05 | 显示全部楼层
期待
回复

使用道具 举报

0

主题

5

帖子

18

积分

新手上路

Rank: 1

积分
18
发表于 2022-9-17 21:12:23 | 显示全部楼层
4K家园不错,希望这种资源越多越好
回复 支持 反对

使用道具 举报

您需要登录后才可以回帖 登录 | 立即注册

本版积分规则

精彩图文
Archiver|手机版|TAG|Sitemap|新帖|专题|联系我们:邮箱: 4kjia.com@gmail.com   

4k家园   ©2019