[4K电影] 小鬼闯巴黎 [繁粤中字] (2000)4K高清版本下载

[复制链接]

2299

主题

2448

帖子

1万

积分

超级版主

Rank: 8Rank: 8

积分
17752
 楼主| 发表于 2022-6-23 10:40:44 | 显示全部楼层 |阅读模式
本帖最后由 最爱4K哟 于 2022-6-23 10:42 编辑

QQ图片20220623102636_副本.png

◎标  题 小鬼闯巴黎
◎译  名 罗格斯在巴黎 / 小淘气巴黎之旅 / 小鬼巴黎行 / 小混球巴黎历险记
◎片  名 Rugrats in Paris: The Movie
◎年  代 2000
◎产  地 美国 / 德国
◎类  别 喜剧 / 动画 / 家庭 / 冒险
◎语  言 英语
◎上映日期 2000-11-17
◎IMDb评分  6.1/10 from 12581 users
◎IMDb链接 https://www.imdb.com/title/tt0213203/
◎豆瓣评分 6.8/10 from 108 users
◎豆瓣链接 https://movie.douban.com/subject/1297701/
◎片  长 78 分钟
◎导  演 斯泰格·贝格基维斯特 Stig Bergqvist / 保罗·戴梅尔 Paul Demeyer
◎编  剧 戴维·N·韦斯 David N. Weiss / 保罗·杰曼 Paul Germain / 阿琳·克拉斯基 Arlene Klasky / 嘉柏·丘波 Gabor Csupo / J·大卫·斯提姆 J. David Stem / 凯特·布蒂利尔 / Kate Boutilier
◎演  员 Paul Demeyer Paul Demeyer
       比利·维斯特 Billy West
       凯斯·索西 Kath Soucie
       约翰·利思戈 John Lithgow
       丹·卡斯泰兰尼塔 Dan Castellaneta
       水源士郎 Tohoru Masamune
       蒂姆·克里 Tim Curry
       特蕾丝·麦克尼尔 Tress MacNeille
       Shannon Stephens Shannon Stephens
       克里·萨莫 Cree Summer
       凯文·迈克尔·理查德森 Kevin Michael Richardson
       查尔斯·阿德勒 Charles Adler
       岩松信 Makoto Iwamatsu
       Casey Kasem Casey Kasem
       伊丽莎白·戴利 Elizabeth Daily
       苏珊·萨兰登 Susan Sarandon
       克里斯汀·凯文诺 Christine Cavanaugh
       乔·阿拉斯奇 Joe Alaskey
       迈克尔·贝尔 Michael Bell
       谢丽尔·蔡斯 Cheryl Chase
       梅拉妮·查托夫 Melanie Chartoff
       塔拉·斯特朗 Tara Strong
       Darrell Kunitomi Darrell Kunitomi
       Goh Misawa Goh Misawa
       菲尔·普洛克特 Phil Proctor
       杰克·雷利 Jack Riley
       黛比·雷诺斯 Debbie Reynolds
       诺顿·维基 Norton Virgien
       Eryk Casemiro Eryk Casemiro
       Arlene Klasky Arlene Klasky
       嘉柏·丘波 Gabor Csupo
       马克·马瑟斯鲍夫 Mark Mothersbaugh
       Barbara Wright Barbara Wright
       布兰登·克雷格 Brandon Craig
       比尔·克罗耶尔 Bill Kroyer


◎简  介


  查克想要一个新妈妈,他的爸爸查斯也开始约会。查克的好朋友汤米的父亲被派去巴黎一家新开的游乐园修理机器人,他把一帮小鬼:汤米、查克、迪利以及莉莲等都带在他的身边。于是查克开始了一个伟大的冒险计划:给自己找一个新妈妈。
小鬼们的巴黎之行使他们每个人都有很多其它的收获。查克认识到事情并非如想象得那样简单。而他的爸爸查斯也认识到,要找一个适合他的女人也是非常的不容易。神奇而有趣的巴黎之行使这帮可爱的小鬼们学到了什么叫勇气、忠诚、信任和真爱。

Video
ID : 1
Format : HEVC
Format/Info : High Efficiency Video Coding
Format profile : Main@L5@Main
Codec ID : V_MPEGH/ISO/HEVC
Duration : 1 h 18 min
Bit rate : 14.8 Mb/s
Width : 3 840 pixels
Height : 2 080 pixels
Display aspect ratio : 1.85:1
Frame rate mode : Constant
Frame rate : 23.976 (24000/1001) FPS
Standard : NTSC
Color space : YUV
Chroma subsampling : 4:2:0
Bit depth : 8 bits
Bits/(Pixel*Frame) : 0.078
Stream size : 8.15 GiB (75%)
Writing library : x265 2.9_elemental+1-9e0607aa5b6f:[Linux][GCC 4.8.5][64 bit] 8bit+10bit+12bit
Encoding settings : cpuid=1111039 / frame-threads=2 / wpp / no-pmode / no-pme / psnr / ssim / log-level=2 / csv / csv-log-level=2 / input-csp=1 / input-res=3840x2080 / interlace=0 / total-frames=0 / level-idc=50 / high-tier=1 / uhd-bd=0 / ref=5 / no-allow-non-conformance / no-repeat-headers / annexb / no-aud / no-hrd / info / hash=0 / no-temporal-layers / no-open-gop / min-keyint=61 / keyint=120 / gop-lookahead=0 / bframes=8 / b-adapt=2 / b-pyramid / bframe-bias=0 / rc-lookahead=120 / lookahead-slices=4 / scenecut=0 / radl=0 / no-intra-refresh / ctu=64 / min-cu-size=8 / rect / amp / max-tu-size=32 / tu-inter-depth=4 / tu-intra-depth=4 / limit-tu=4 / rdoq-level=2 / dynamic-rd=0.00 / no-ssim-rd / signhide / tskip / nr-intra=100 / nr-inter=600 / no-constrained-intra / strong-intra-smoothing / max-merge=3 / limit-refs=3 / limit-modes / me=3 / subme=3 / merange=57 / temporal-mvp / weightp / weightb / no-analyze-src-pics / deblock=0:0 / no-sao / no-sao-non-deblock / rd=4 / no-early-skip / no-rskip / no-fast-intra / tskip-fast / no-cu-lossless / b-intra / no-splitrd-skip / rdpenalty=0 / psy-rd=4.00 / psy-rdoq=10.00 / no-rd-refine / no-lossless / cbqpoffs=0 / crqpoffs=0 / rc=crf / crf=25.0 / qcomp=0.60 / qpstep=1 / stats-write=0 / stats-read=0 / vbv-maxrate=15000 / vbv-bufsize=20000 / vbv-init=0.9 / crf-max=0.0 / crf-min=0.0 / ipratio=1.10 / pbratio=1.00 / aq-mode=0 / aq-strength=1.50 / no-cutree / zone-count=0 / no-strict-cbr / qg-size=32 / rc-grain / qpmax=69 / qpmin=0 / const-vbv / sar=255 / sar-width / : / sar-height=481:480 / overscan=0 / videoformat=2 / range=0 / colorprim=1 / transfer=1 / colormatrix=1 / chromaloc=0 / display-window=0 / max-cll=0,0 / min-luma=0 / max-luma=255 / log2-max-poc-lsb=8 / vui-timing-info / vui-hrd-info / slices=1 / opt-qp-pps / no-opt-ref-list-length-pps / no-multi-pass-opt-rps / scenecut-bias=0.05 / no-opt-cu-delta-qp / no-aq-motion / no-hdr / no-hdr-opt / no-dhdr10-opt / no-idr-recovery-sei / analysis-reuse-level=5 / scale-factor=0 / refine-intra=0 / refine-inter=0 / refine-mv=0 / no-limit-sao / ctu-info=0 / no-lowpass-dct / refine-mv-type=0 / copy-pic=1 / max-ausize-factor=1.0 / no-dynamic-refine / no-single-sei
Language : English
Default : Yes
Forced : No
Color range : Limited
Color primaries : BT.709
Transfer characteristics : BT.709
Matrix coefficients : BT.709

Audio #1
ID : 2
Format : MLP FBA
Format/Info : Meridian Lossless Packing FBA
Commercial name : Dolby TrueHD
Codec ID : A_TRUEHD
Duration : 1 h 18 min
Bit rate mode : Variable
Bit rate : 1 377 kb/s
Maximum bit rate : 3 477 kb/s
Channel(s) : 6 channels
Channel layout : L R C LFE Ls Rs
Sampling rate : 48.0 kHz
Frame rate : 1 200.000 FPS (40 SPF)
Compression mode : Lossless
Stream size : 774 MiB (7%)
Title : Dolby TrueHD Audio / 5.1 / 48 kHz / 1377 kbps / 24-bit
Language : English
Default : Yes
Forced : No

Audio #2
ID : 3
Format : DTS XLL
Format/Info : Digital Theater Systems
Commercial name : DTS-HD Master Audio
Codec ID : A_DTS
Duration : 1 h 18 min
Bit rate mode : Variable
Bit rate : 2 834 kb/s
Channel(s) : 6 channels
Channel layout : C L R Ls Rs LFE
Sampling rate : 48.0 kHz
Frame rate : 93.750 FPS (512 SPF)
Bit depth : 24 bits
Compression mode : Lossless
Stream size : 1.56 GiB (14%)
Title : DTS-HD MA 5.1
Language : English
Default : No
Forced : No

Audio #3
ID : 4
Format : AC-3
Format/Info : Audio Coding 3
Commercial name : Dolby Digital
Codec ID : A_AC3
Duration : 1 h 18 min
Bit rate mode : Constant
Bit rate : 640 kb/s
Channel(s) : 6 channels
Channel layout : L R C LFE Ls Rs
Sampling rate : 48.0 kHz
Frame rate : 31.250 FPS (1536 SPF)
Compression mode : Lossy
Stream size : 360 MiB (3%)
Title : Compatibility Track / Dolby Digital Audio / 5.1 / 48 kHz / 640 kbps
Language : English
Service kind : Complete Main
Default : Yes
Forced : No

Text #1
ID : 5
Format : UTF-8
Codec ID : S_TEXT/UTF8
Codec ID/Info : UTF-8 Plain Text
Duration : 1 h 17 min
Bit rate : 69 b/s
Count of elements : 1110
Stream size : 39.2 KiB (0%)
Language : English
Default : Yes
Forced : No

Text #2
ID : 6
Format : UTF-8
Codec ID : S_TEXT/UTF8
Codec ID/Info : UTF-8 Plain Text
Duration : 1 h 17 min
Bit rate : 76 b/s
Count of elements : 1272
Stream size : 43.1 KiB (0%)
Title : SDH
Language : English
Default : No
Forced : No

Text #3
ID : 7
Format : UTF-8
Codec ID : S_TEXT/UTF8
Codec ID/Info : UTF-8 Plain Text
Duration : 1 h 11 min
Bit rate : 86 b/s
Count of elements : 714
Stream size : 45.2 KiB (0%)
Language : Bulgarian
Default : No
Forced : No

Text #4
ID : 8
Format : UTF-8
Codec ID : S_TEXT/UTF8
Codec ID/Info : UTF-8 Plain Text
Duration : 1 h 11 min
Bit rate : 53 b/s
Count of elements : 798
Stream size : 28.3 KiB (0%)
Language : Czech
Default : No
Forced : No

Text #5
ID : 9
Format : UTF-8
Codec ID : S_TEXT/UTF8
Codec ID/Info : UTF-8 Plain Text
Duration : 1 h 11 min
Bit rate : 55 b/s
Count of elements : 796
Stream size : 29.4 KiB (0%)
Language : Danish
Default : No
Forced : No

Text #6
ID : 10
Format : UTF-8
Codec ID : S_TEXT/UTF8
Codec ID/Info : UTF-8 Plain Text
Duration : 1 h 11 min
Bit rate : 54 b/s
Count of elements : 765
Stream size : 28.4 KiB (0%)
Language : Dutch
Default : No
Forced : No

Text #7
ID : 11
Format : UTF-8
Codec ID : S_TEXT/UTF8
Codec ID/Info : UTF-8 Plain Text
Duration : 1 h 11 min
Bit rate : 55 b/s
Count of elements : 787
Stream size : 29.0 KiB (0%)
Language : Finnish
Default : No
Forced : No

Text #8
ID : 12
Format : UTF-8
Codec ID : S_TEXT/UTF8
Codec ID/Info : UTF-8 Plain Text
Duration : 1 h 11 min
Bit rate : 58 b/s
Count of elements : 815
Stream size : 30.8 KiB (0%)
Language : French
Default : No
Forced : No

Text #9
ID : 13
Format : UTF-8
Codec ID : S_TEXT/UTF8
Codec ID/Info : UTF-8 Plain Text
Duration : 1 h 11 min
Bit rate : 54 b/s
Count of elements : 798
Stream size : 28.7 KiB (0%)
Language : Hebrew
Default : No
Forced : No

Text #10
ID : 14
Format : UTF-8
Codec ID : S_TEXT/UTF8
Codec ID/Info : UTF-8 Plain Text
Duration : 1 h 17 min
Bit rate : 145 b/s
Count of elements : 804
Stream size : 82.4 KiB (0%)
Language : Hindi
Default : No
Forced : No

Text #11
ID : 15
Format : UTF-8
Codec ID : S_TEXT/UTF8
Codec ID/Info : UTF-8 Plain Text
Duration : 1 h 11 min
Bit rate : 57 b/s
Count of elements : 797
Stream size : 30.0 KiB (0%)
Language : Norwegian Bokmal
Default : No
Forced : No

Text #12
ID : 16
Format : UTF-8
Codec ID : S_TEXT/UTF8
Codec ID/Info : UTF-8 Plain Text
Duration : 1 h 11 min
Bit rate : 57 b/s
Count of elements : 797
Stream size : 30.4 KiB (0%)
Language : Polish
Default : No
Forced : No

Text #13
ID : 17
Format : UTF-8
Codec ID : S_TEXT/UTF8
Codec ID/Info : UTF-8 Plain Text
Duration : 1 h 12 min
Bit rate : 59 b/s
Count of elements : 799
Stream size : 31.2 KiB (0%)
Language : Portuguese
Default : No
Forced : No

Text #14
ID : 18
Format : UTF-8
Codec ID : S_TEXT/UTF8
Codec ID/Info : UTF-8 Plain Text
Duration : 1 h 11 min
Bit rate : 61 b/s
Count of elements : 807
Stream size : 32.6 KiB (0%)
Title : Brazilian
Language : Portuguese
Default : No
Forced : No

Text #15
ID : 19
Format : UTF-8
Codec ID : S_TEXT/UTF8
Codec ID/Info : UTF-8 Plain Text
Duration : 1 h 11 min
Bit rate : 103 b/s
Count of elements : 908
Stream size : 54.4 KiB (0%)
Language : Russian
Default : No
Forced : No

Text #16
ID : 20
Format : UTF-8
Codec ID : S_TEXT/UTF8
Codec ID/Info : UTF-8 Plain Text
Duration : 1 h 11 min
Bit rate : 51 b/s
Count of elements : 797
Stream size : 27.2 KiB (0%)
Language : Slovenian
Default : No
Forced : No

Text #17
ID : 21
Format : UTF-8
Codec ID : S_TEXT/UTF8
Codec ID/Info : UTF-8 Plain Text
Duration : 1 h 12 min
Bit rate : 58 b/s
Count of elements : 799
Stream size : 30.9 KiB (0%)
Title : European
Language : Spanish
Default : No
Forced : No

Text #18
ID : 22
Format : UTF-8
Codec ID : S_TEXT/UTF8
Codec ID/Info : UTF-8 Plain Text
Duration : 1 h 12 min
Bit rate : 62 b/s
Count of elements : 809
Stream size : 32.9 KiB (0%)
Title : Latin American
Language : Spanish
Default : No
Forced : No

Text #19
ID : 23
Format : UTF-8
Codec ID : S_TEXT/UTF8
Codec ID/Info : UTF-8 Plain Text
Duration : 1 h 11 min
Bit rate : 57 b/s
Count of elements : 783
Stream size : 30.3 KiB (0%)
Language : Swedish
Default : No
Forced : No

Text #20
ID : 24
Format : UTF-8
Codec ID : S_TEXT/UTF8
Codec ID/Info : UTF-8 Plain Text
Duration : 1 h 11 min
Bit rate : 147 b/s
Count of elements : 807
Stream size : 77.8 KiB (0%)
Language : Thai
Default : No
Forced : No

Text #21
ID : 25
Format : UTF-8
Codec ID : S_TEXT/UTF8
Codec ID/Info : UTF-8 Plain Text
Duration : 1 h 11 min
Bit rate : 60 b/s
Count of elements : 797
Stream size : 31.9 KiB (0%)
Language : Turkish
Default : No
Forced : No

Text #22
ID : 26
Format : UTF-8
Codec ID : S_TEXT/UTF8
Codec ID/Info : UTF-8 Plain Text
Duration : 1 h 11 min
Bit rate : 47 b/s
Count of elements : 798
Stream size : 24.7 KiB (0%)
Title : 中文(繁体)
Language : 中文
Default : No
Forced : No

Text #23
ID : 27
Format : UTF-8
Codec ID : S_TEXT/UTF8
Codec ID/Info : UTF-8 Plain Text
Duration : 1 h 12 min
Bit rate : 44 b/s
Count of elements : 800
Stream size : 23.3 KiB (0%)
Title : 中文(粤语)
Language : 中文
Default : No
Forced : No


Menu
00:00:00.000 : en:The Bobfather
00:07:35.329 : en:A New Mommy
00:17:27.880 : en:EuroReptarland
00:25:17.933 : enrincess Parade
00:30:43.883 : en:Ooey Gooey World
00:39:05.009 : en:Chuckie Chan
00:47:02.486 : en:Mommy Princess
00:53:35.879 : en:Angelica Confesses
00:59:11.381 : en:Reptar vs. RoboSnail
01:08:28.979 : en:Chas Get Married
01:13:01.251 : en:Credits

资源速度为零或资源敏感被和谐时,推荐使用qBittorrent等下载软件,有条件的推荐115更好的下载软件!

下载地址:

游客,如果您要查看本帖隐藏内容请回复

游客,如果您要查看本帖隐藏内容请回复





上一篇:青少年 / Young Adult (2011) 4K高清版本下载
下一篇:黄石镇谋杀案 / Murder at Yellowstone City (2022) 4K高清版本下载
回复

使用道具 举报

4

主题

1640

帖子

4520

积分

4K家园VIP

Rank: 9Rank: 9Rank: 9

积分
4520
发表于 2022-6-23 10:40:50 来自手机 | 显示全部楼层
纯粹路过,没任何兴趣,仅仅是看在老用户份上回复一下
回复 支持 反对

使用道具 举报

4

主题

14

帖子

355

积分

4K家园VIP

Rank: 9Rank: 9Rank: 9

积分
355
发表于 2022-6-24 09:12:02 | 显示全部楼层
请问有继承之战第1-3季、黑袍纠察队第三季、伞学院第三季的资源吗
回复 支持 反对

使用道具 举报

3

主题

1395

帖子

4017

积分

4K家园VIP

Rank: 9Rank: 9Rank: 9

积分
4017
发表于 2022-6-25 16:25:18 | 显示全部楼层
撸过
回复 支持 反对

使用道具 举报

3

主题

1407

帖子

4063

积分

4K家园VIP

Rank: 9Rank: 9Rank: 9

积分
4063
发表于 2022-6-26 17:09:20 来自手机 | 显示全部楼层
感谢楼主的分享,还是阔以滴
回复 支持 反对

使用道具 举报

53

主题

1517

帖子

4421

积分

4K家园VIP

Rank: 9Rank: 9Rank: 9

积分
4421
发表于 2022-6-27 14:34:15 来自手机 | 显示全部楼层
多发些资源啊
回复 支持 反对

使用道具 举报

2

主题

1689

帖子

4655

积分

4K家园VIP

Rank: 9Rank: 9Rank: 9

积分
4655
发表于 2022-8-10 12:59:55 | 显示全部楼层
LZ敢整点更有创意的不?兄弟们等着围观捏~
回复 支持 反对

使用道具 举报

您需要登录后才可以回帖 登录 | 立即注册

本版积分规则

精彩图文
Archiver|手机版|TAG|Sitemap|新帖|专题|联系我们:邮箱: 4kjia.com@gmail.com   

4k家园   ©2019