[4K电影] 恐怖之地 / Where the Scary Things Are (2022) 4K高清版本下载

[复制链接]

2118

主题

2259

帖子

1万

积分

超级版主

Rank: 8Rank: 8

积分
16577
 楼主| 发表于 2022-6-28 15:54:34 | 显示全部楼层 |阅读模式
本帖最后由 最爱4K哟 于 2022-6-28 16:44 编辑

QQ图片20220628153409_副本.png

◎译  名 恐怖之地
◎片  名 Where the Scary Things Are
◎年  代 2022
◎产  地 英国
◎类  别 恐怖
◎语  言 英语
◎上映日期 上映日期: 2022-06-28(美国)
◎IMDb评分 0/10 from 0 users
◎IMDb链接 https://www.imdb.com/title/tt12684068
◎豆瓣评分 0/10 from 0 users
◎豆瓣链接 https://movie.douban.com/subject/35875238/
◎片  长 93分钟
◎导  演 B·哈里森·史密斯 B. Harrison Smith
◎编  剧 B·哈里森·史密斯 B. Harrison Smith
◎主  演 贾纳·帕尔默 Janae Palmer
                  Selina Flanscha Selina Flanscha
                  奥利弗·吉文斯 Oliver Givens
                  迈克尔·塞万提斯 Michael Cervantes
                  戴维·拉斐尔 Davy Raphaely
                  彼得·科特 Peter Cote
                  保罗·科特曼 Paul Cottman
                  道格·亨德森 Doug Henderson
                  奎因·安德鲁·菲克斯 Quinn Andrew Fickes
                  赖利·沙利文 Riley Sullivan
                  阿希尔·鲁佩特 Asher Ruppert
                  凯西·朗 Kathy Long
                  哈利斯·塞普韦达 Kharis Sepulveda
                  卡洛琳·乌尔里希 Caroline Ulrich
                  艾玛·林 Emma Lim
                  阿德里安·福斯 Adrienne Fors
                  汉娜·库恩 Hannah Kuhn
                  瓦莱丽·舒尔茨 Valerie Schulz



◎简  介


          一群青少年受到一所高中“创造你自己的城市传奇”项目的启发,他们很快失去了对更多“喜欢”的渴望,并迅速传播开来,造成致命后果。
Video
ID : 1
Format : HEVC
Format/Info : High Efficiency Video Coding
Format profile : Main 10@L5@High
Codec ID : V_MPEGH/ISO/HEVC
Duration : 1 h 33 min
Bit rate : 11.8 Mb/s
Width : 3 828 pixels
Height : 1 632 pixels
Display aspect ratio : 2.35:1
Frame rate mode : Constant
Frame rate : 23.976 FPS
Color space : YUV
Chroma subsampling : 4:2:0
Bit depth : 10 bits
Bits/(Pixel*Frame) : 0.079
Stream size : 7.72 GiB (97%)
Language : English
Default : Yes
Forced : No
Color range : Limited
Color primaries : BT.709
Transfer characteristics : BT.709
Matrix coefficients : BT.709

Audio
ID : 2
Format : AC-3
Format/Info : Audio Coding 3
Commercial name : Dolby Digital
Codec ID : A_AC3
Duration : 1 h 33 min
Bit rate mode : Constant
Bit rate : 384 kb/s
Channel(s) : 6 channels
Channel layout : L R C LFE Ls Rs
Sampling rate : 48.0 kHz
Frame rate : 31.250 FPS (1536 SPF)
Compression mode : Lossy
Stream size : 257 MiB (3%)
Language : English
Service kind : Complete Main
Default : Yes
Forced : No

Text #1
ID : 3
Format : UTF-8
Codec ID : S_TEXT/UTF8
Codec ID/Info : UTF-8 Plain Text
Duration : 1 h 29 min
Bit rate : 52 b/s
Count of elements : 1146
Stream size : 34.1 KiB (0%)
Title : SDH
Language : English
Default : No
Forced : No

Text #2
ID : 4
Format : UTF-8
Codec ID : S_TEXT/UTF8
Codec ID/Info : UTF-8 Plain Text
Duration : 1 h 25 min
Bit rate : 44 b/s
Count of elements : 902
Stream size : 28.2 KiB (0%)
Language : English
Default : No
Forced : No

Text #3
ID : 5
Format : UTF-8
Codec ID : S_TEXT/UTF8
Codec ID/Info : UTF-8 Plain Text
Duration : 1 h 27 min
Bit rate : 39 b/s
Count of elements : 795
Stream size : 25.2 KiB (0%)
Language : French
Default : No
Forced : No

Menu
00:00:00.000 : Chapter 01
00:02:50.795 : Chapter 02
00:15:26.676 : Chapter 03
00:26:17.494 : Chapter 04
00:39:39.295 : Chapter 05
00:48:58.855 : Chapter 06
01:02:33.670 : Chapter 07
01:15:06.172 : Chapter 08
01:28:57.337 : Chapter 09

资源速度为零或资源敏感被和谐时,推荐使用qBittorrent等下载软件,有条件的推荐115更好的下载软件!

下载地址:


游客,如果您要查看本帖隐藏内容请回复






上一篇:蓝色夏威夷 / Blue Hawaii (1961) 4K高清版本下载
下一篇:欢乐野营两家人 / Family.Camp (2022) 4K高清版本下载
回复

使用道具 举报

0

主题

1356

帖子

4078

积分

4K家园VIP

Rank: 9Rank: 9Rank: 9

积分
4078
发表于 2022-6-28 15:54:38 | 显示全部楼层
呵呵。。。
回复 支持 反对

使用道具 举报

44

主题

1530

帖子

4408

积分

4K家园VIP

Rank: 9Rank: 9Rank: 9

积分
4408
发表于 2022-6-28 16:28:40 来自手机 | 显示全部楼层
发发呆,回回帖,工作结束~
回复 支持 反对

使用道具 举报

62

主题

1608

帖子

4660

积分

4K家园VIP

Rank: 9Rank: 9Rank: 9

积分
4660
发表于 2022-6-28 16:38:31 | 显示全部楼层
4K应该不错,我也下个看看
回复 支持 反对

使用道具 举报

1

主题

1389

帖子

3973

积分

4K家园VIP

Rank: 9Rank: 9Rank: 9

积分
3973
发表于 2022-6-28 18:24:00 | 显示全部楼层
不错 支持下
回复 支持 反对

使用道具 举报

0

主题

13

帖子

33

积分

新手上路

Rank: 1

积分
33
发表于 2022-6-28 20:08:00 | 显示全部楼层
感谢分享
回复

使用道具 举报

0

主题

1346

帖子

4060

积分

4K家园VIP

Rank: 9Rank: 9Rank: 9

积分
4060
发表于 2022-6-28 22:40:58 | 显示全部楼层
体验下4K版的
回复 支持 反对

使用道具 举报

0

主题

426

帖子

2601

积分

注册会员

Rank: 2

积分
2601
发表于 2022-6-29 13:04:18 | 显示全部楼层
谢谢楼主分享
回复 支持 反对

使用道具 举报

您需要登录后才可以回帖 登录 | 立即注册

本版积分规则

精彩图文
Archiver|手机版|TAG|Sitemap|新帖|专题|联系我们:邮箱: 4kjia.com@gmail.com   

4k家园   ©2019